Set as default Homepage|Bookmark
 
 
» » Goodachari ( Intelligent Khiladi) (2019) Hindi - 1080p - WEB-HD - AVC - AAC-Adatiya
Advertise

Goodachari ( Intelligent Khiladi) (2019) Hindi - 1080p - WEB-HD - AVC - AAC-Adatiya

Author: wroser on 28-01-2019, 01:16
Goodachari ( Intelligent Khiladi) (2019) Hindi - 1080p - WEB-HD - AVC - AAC-Adatiya





Format                                   : MPEG-4
Format profile                           : Base Media
Codec ID                                 : isom (isom/iso2/avc1/mp41)
File size                                : 1.59 GiB
Duration                                 : 2 h 25 min
Overall bit rate                         : 1 568 kb/s
Writing application                      : Lavf58.9.100

Video
ID                                       : 1
Format                                   : AVC
Format/Info                              : Advanced Video Codec
Format profile                           : High@L4
Format settings                          : CABAC / 3 Ref Frames
Format settings, CABAC                   : Yes
Format settings, RefFrames               : 3 frames
Codec ID                                 : avc1
Codec ID/Info                            : Advanced Video Coding
Duration                                 : 2 h 25 min
Bit rate                                 : 1 434 kb/s
Width                                    : 1 920 pixels
Height                                   : 1 080 pixels
Display aspect ratio                     : 16:9
Frame rate mode                          : Constant
Frame rate                               : 24.000 FPS
Color space                              : YUV
Chroma subsampling                       : 4:2:0
Bit depth                                : 8 bits
Scan type                                : Progressive
Bits/(Pixel*Frame)                       : 0.029
Stream size                              : 1.45 GiB (91%)
Color range                              : Limited
Color primaries                          : BT.709
Transfer characteristics                 : BT.709
Matrix coefficients                      : BT.709
Codec configuration box                  : avcC

Audio
ID                                       : 2
Format                                   : AAC LC
Format/Info                              : Advanced Audio Codec Low Complexity
Codec ID                                 : mp4a-40-2
Duration                                 : 2 h 25 min
Bit rate mode                            : Constant
Bit rate                                 : 128 kb/s
Channel(s)                               : 2 channels
Channel layout                           : L R
Sampling rate                            : 44.1 kHz
Frame rate                               : 43.066 FPS (1024 SPF)
Compression mode                         : Lossy
Stream size                              : 133 MiB (8%)
Default                                  : Yes
Alternate group                          : 1



Goodachari ( Intelligent Khiladi) (2019) Hindi - 1080p - WEB-HD - AVC - AAC-AdatiyaGoodachari ( Intelligent Khiladi) (2019) Hindi - 1080p - WEB-HD - AVC - AAC-AdatiyaGoodachari ( Intelligent Khiladi) (2019) Hindi - 1080p - WEB-HD - AVC - AAC-AdatiyaGoodachari ( Intelligent Khiladi) (2019) Hindi - 1080p - WEB-HD - AVC - AAC-AdatiyaGoodachari ( Intelligent Khiladi) (2019) Hindi - 1080p - WEB-HD - AVC - AAC-AdatiyaGoodachari ( Intelligent Khiladi) (2019) Hindi - 1080p - WEB-HD - AVC - AAC-AdatiyaGoodachari ( Intelligent Khiladi) (2019) Hindi - 1080p - WEB-HD - AVC - AAC-Adatiya


SINGLE DIRECT FAST LINKS


https://www.heroupload.com/2f37ff5b08c82f37/Goodachari.Intelligent.Khiladi.2019.Hindi.1080p.WEB-HD.AVC.AAC-Aditya.mp4


Buy Premium From My Links & Support Me

Теги: Goodachari

Dear visitor, you are browsing our website as Guest.
We strongly recommend you to register and login to view hidden contents.

Comments:

Add Comments
Reply
  • Dorothy

  • 28 January 2019 16:32
  • Group: Guests
  • ICQ:
  • Registration: --
  • Status:
  • 0 Comment
  • 0 Article
^
The people at Alto are doing good work such as their online converter at de.altoconvertpdftoexcel.com. It is basically designed to convert all your pdf files into excel formats as it is neccesary for some applications.