Set as default Homepage|Bookmark
 
 
» » Aquaman (2018) 720p HDRip x264 [Multi Line Audios][Hindi+Telugu+Tamil+English]
Advertise

Aquaman (2018) 720p HDRip x264 [Multi Line Audios][Hindi+Telugu+Tamil+English]

Author: wroser on 25-01-2019, 19:53
Aquaman (2018) 720p HDRip x264 [Multi Line Audios][Hindi+Telugu+Tamil+English]





Format                                   : Matroska
Format version                           : Version 4
File size                                : 1.42 GiB
Duration                                 : 2 h 22 min
Overall bit rate                         : 1 426 kb/s
Encoded date                             : UTC 2019-01-24 21:12:22
Writing application                      : mkvmerge v29.0.0 ('Like It Or Not') 32-bit
Writing library                          : libebml v1.3.6 + libmatroska v1.4.9

Video
ID                                       : 1
Format                                   : AVC
Format/Info                              : Advanced Video Codec
Format profile                           : High@L4.1
Format settings                          : CABAC / 5 Ref Frames
Format settings, CABAC                   : Yes
Format settings, RefFrames               : 5 frames
Codec ID                                 : V_MPEG4/ISO/AVC
Duration                                 : 2 h 22 min
Bit rate                                 : 1 057 kb/s
Width                                    : 1 280 pixels
Height                                   : 534 pixels
Display aspect ratio                     : 2.40:1
Original display aspect ratio            : 2.40:1
Frame rate mode                          : Constant
Frame rate                               : 29.970 (30000/1001) FPS
Color space                              : YUV
Chroma subsampling                       : 4:2:0
Bit depth                                : 8 bits
Scan type                                : Progressive
Bits/(Pixel*Frame)                       : 0.052
Stream size                              : 1.05 GiB (74%)
Writing library                          : x264 core 155 r2901 7d0ff22
Encoding settings                        : cabac=1 / ref=5 / deblock=1:0:0 / analyse=0x3:0x113 / me=hex / subme=8 / psy=1 / psy_rd=1.00:0.00 / mixed_ref=1 / me_range=16 / chroma_me=1 / trellis=2 / 8x8dct=1 / cqm=0 / deadzone=21,11 / fast_pskip=1 / chroma_qp_offset=-2 / threads=17 / lookahead_threads=2 / sliced_threads=0 / nr=0 / decimate=1 / interlaced=0 / bluray_compat=0 / constrained_intra=0 / bframes=3 / b_pyramid=2 / b_adapt=1 / b_bias=0 / direct=3 / weightb=1 / open_gop=0 / weightp=2 / keyint=300 / keyint_min=30 / scenecut=40 / intra_refresh=0 / rc_lookahead=50 / rc=2pass / mbtree=1 / bitrate=1057 / ratetol=1.0 / qcomp=0.60 / qpmin=0 / qpmax=69 / qpstep=4 / cplxblur=20.0 / qblur=0.5 / vbv_maxrate=62500 / vbv_bufsize=78125 / nal_hrd=none / filler=0 / ip_ratio=1.40 / aq=1:1.00
Default                                  : Yes
Forced                                   : No
Color range                              : Limited
Color primaries                          : BT.709
Transfer characteristics                 : BT.709
Matrix coefficients                      : BT.709

Audio #1
ID                                       : 2
Format                                   : MPEG Audio
Format version                           : Version 1
Format profile                           : Layer 3
Format settings                          : Joint stereo
Codec ID                                 : A_MPEG/L3
Codec ID/Hint                            : MP3
Duration                                 : 2 h 22 min
Bit rate mode                            : Constant
Bit rate                                 : 96.0 kb/s
Channel(s)                               : 2 channels
Sampling rate                            : 32.0 kHz
Frame rate                               : 27.778 FPS (1152 SPF)
Compression mode                         : Lossy
Stream size                              : 97.9 MiB (7%)
Language                                 : Telugu
Default                                  : Yes
Forced                                   : Yes

Audio #2
ID                                       : 3
Format                                   : MPEG Audio
Format version                           : Version 1
Format profile                           : Layer 3
Format settings                          : Joint stereo
Codec ID                                 : A_MPEG/L3
Codec ID/Hint                            : MP3
Duration                                 : 2 h 22 min
Bit rate mode                            : Constant
Bit rate                                 : 96.0 kb/s
Channel(s)                               : 2 channels
Sampling rate                            : 32.0 kHz
Frame rate                               : 27.778 FPS (1152 SPF)
Compression mode                         : Lossy
Stream size                              : 97.9 MiB (7%)
Language                                 : Tamil
Default                                  : No
Forced                                   : No

Audio #3
ID                                       : 4
Format                                   : MPEG Audio
Format version                           : Version 1
Format profile                           : Layer 3
Format settings                          : Joint stereo
Codec ID                                 : A_MPEG/L3
Codec ID/Hint                            : MP3
Duration                                 : 2 h 22 min
Bit rate mode                            : Constant
Bit rate                                 : 96.0 kb/s
Channel(s)                               : 2 channels
Sampling rate                            : 32.0 kHz
Frame rate                               : 27.778 FPS (1152 SPF)
Compression mode                         : Lossy
Stream size                              : 97.9 MiB (7%)
Language                                 : Hindi
Default                                  : No
Forced                                   : No

Audio #4
ID                                       : 5
Format                                   : MPEG Audio
Format version                           : Version 1
Format profile                           : Layer 3
Format settings                          : Joint stereo / MS Stereo
Codec ID                                 : A_MPEG/L3
Codec ID/Hint                            : MP3
Duration                                 : 2 h 22 min
Bit rate mode                            : Constant
Bit rate                                 : 80.0 kb/s
Channel(s)                               : 2 channels
Sampling rate                            : 48.0 kHz
Frame rate                               : 41.667 FPS (1152 SPF)
Compression mode                         : Lossy
Delay relative to video                  : 240 ms
Stream size                              : 81.5 MiB (6%)
Writing library                          : LAME3.100ªªªªªª / Im¶É
Language                                 : English
Default                                  : No
Forced                                   : No



Aquaman (2018) 720p HDRip x264 [Multi Line Audios][Hindi+Telugu+Tamil+English]Aquaman (2018) 720p HDRip x264 [Multi Line Audios][Hindi+Telugu+Tamil+English]Aquaman (2018) 720p HDRip x264 [Multi Line Audios][Hindi+Telugu+Tamil+English]Aquaman (2018) 720p HDRip x264 [Multi Line Audios][Hindi+Telugu+Tamil+English]Aquaman (2018) 720p HDRip x264 [Multi Line Audios][Hindi+Telugu+Tamil+English]Aquaman (2018) 720p HDRip x264 [Multi Line Audios][Hindi+Telugu+Tamil+English]

SINGLE DIRECT FAST LINKS


https://www.heroupload.com/e162a8c9f7d5371f/Aquaman.2018.2D.HDRip.720p.Line.Audious.Telugu+Tamil+Hindi+English.mkv






Buy Premium From My Links & Support Me

Теги: Aquaman

Dear visitor, you are browsing our website as Guest.
We strongly recommend you to register and login to view hidden contents.

Comments:

Add Comments
Reply
  • Group: Guests
  • ICQ:
  • Registration: --
  • Status:
  • 0 Comment
  • 0 Article
^
Extremely intriguing online journal. A lot of web journals I see nowadays don't generally give anything that I'm keen on, however I'm most definitely inspired by this one. Recently felt that I would post and let you know. FRASES DE BUENOS DIAS PARA ENAMORAR
Reply
  • Group: Guests
  • ICQ:
  • Registration: --
  • Status:
  • 0 Comment
  • 0 Article
^
Great post yet I was thinking about whether you could compose a litte more on this subject? I"d be exceptionally grateful in the event that you could expound a tad bit further. Value it! sms bomber