Set as default Homepage|Bookmark
 
 
» » If Beale Street Could Talk (2018) DVDScr XVID AC3 HQ Hive-CM8
Advertise

If Beale Street Could Talk (2018) DVDScr XVID AC3 HQ Hive-CM8

Author: wroser on 23-01-2019, 21:09
If Beale Street Could Talk (2018) DVDScr XVID AC3 HQ Hive-CM8







https://www.imdb.com/title/tt7125860/


Plot:
When Lee Israel falls out of step with current tastes, she turns her art form to deception.

Cast:
Melissa McCarthy ... Lee Israel
Richard E. Grant ... Jack Hock
Dolly Wells        ... Anna
Ben Falcone     ... Alan Schmidt
Gregory Korostishevsky. Andre
Jane Curtin     ... Marjorie
Stephen Spinella ... Paul
Christian Navarro ... Kurt
Pun Bandhu        ... Agent Doyle
Erik LaRay Harvey ... Agent Solonas
Brandon Scott Jones ... Glen
Shae D'lyn        ... Nell
Rosal Colon        ... Rachel
Anna Deavere Smith ... Elaine
Marc Evan Jackson ... Lloyd


General
Complete name                  : If.Beale.Street.Could.Talk.2018.DVDScr.XVID.AC3.HQ.Hive-CM8.avi
Format                         : AVI
Format/Info                    : Audio Video Interleave
File size                      : 1.58 GiB
Duration                       : 1h 59mn
Overall bit rate               : 1 901 Kbps
Writing application            : Nandub v1.0rc2
Writing library                : Nandub build 1853/release

Video
ID                             : 0
Format                         : MPEG-4 Visual
Format profile                 : Advanced Simple@L5
Format settings, BVOP          : 2
Format settings, QPel          : Yes
Format settings, GMC           : No warppoints
Format settings, Matrix        : Default (H.263)
Muxing mode                    : Packed bitstream
Codec ID                       : XVID
Codec ID/Hint                  : XviD
Duration                       : 1h 59mn
Bit rate                       : 1 636 Kbps
Width                          : 720 pixels
Height                         : 368 pixels
Display aspect ratio           : 1.957
Frame rate                     : 23.976 fps
Color space                    : YUV
Chroma subsampling             : 4:2:0
Bit depth                      : 8 bits
Scan type                      : Progressive
Compression mode               : Lossy
Bits/(Pixel*Frame)             : 0.258
Stream size                    : 1.36 GiB (86%)
Writing library                : XviD 1.2.1 (UTC 2008-12-04)

Audio
ID                             : 1
Format                         : AC-3
Format/Info                    : Audio Coding 3
Mode extension                 : CM (complete main)
Format settings, Endianness    : Big
Codec ID                       : 2000
Duration                       : 1h 59mn
Bit rate mode                  : Constant
Bit rate                       : 256 Kbps
Channel(s)                     : 2 channels
Channel positions              : Front: L R
Sampling rate                  : 48.0 KHz
Bit depth                      : 16 bits
Compression mode               : Lossy
Stream size                    : 218 MiB (13%)
Alignment                      : Split accross interleaves
Interleave, duration           : 42 ms (1.00 video frame)
Interleave, preload duration   : 500 ms





If Beale Street Could Talk (2018) DVDScr XVID AC3 HQ Hive-CM8
If Beale Street Could Talk (2018) DVDScr XVID AC3 HQ Hive-CM8
If Beale Street Could Talk (2018) DVDScr XVID AC3 HQ Hive-CM8
If Beale Street Could Talk (2018) DVDScr XVID AC3 HQ Hive-CM8
If Beale Street Could Talk (2018) DVDScr XVID AC3 HQ Hive-CM8

SINGLE DIRECT FAST LINKS

https://www.heroupload.com/cd866b1ece4a2636/If.Beale.Street.Could.Talk.2018.DVDScr.XVID.AC3.HQ.Hive-CM8.avi



Buy Premium From My Links & Support Me

Теги: If

Dear visitor, you are browsing our website as Guest.
We strongly recommend you to register and login to view hidden contents.

Comments:

Add Comments
Reply
  • Group: Guests
  • ICQ:
  • Registration: --
  • Status:
  • 0 Comment
  • 0 Article
^
I have searched a lot for this information. Fortunately, I have met you. This article has helped me understand many things Swords And Souls