Set as default Homepage|Bookmark
 
 
» » Battalion 609 (2019) Hindi - PreDVDRip - x264 - UNTOUCHED - AAC-AF Exclusive
Advertise

Battalion 609 (2019) Hindi - PreDVDRip - x264 - UNTOUCHED - AAC-AF Exclusive

Author: wroser on 19-01-2019, 22:58
Battalion 609 (2019) Hindi - PreDVDRip - x264 - UNTOUCHED - AAC-AF Exclusive





Format                                   : Matroska
Format version                           : Version 4
File size                                : 1.40 GiB
Duration                                 : 2 h 19 min
Overall bit rate                         : 1 439 kb/s
Encoded date                             : UTC 2019-01-19 22:52:40
Writing application                      : mkvmerge v29.0.0 ('Like It Or Not') 32-bit
Writing library                          : libebml v1.3.6 + libmatroska v1.4.9

Video
ID                                       : 1
Format                                   : AVC
Format/Info                              : Advanced Video Codec
Format profile                           : High@L4
Format settings                          : CABAC / 4 Ref Frames
Format settings, CABAC                   : Yes
Format settings, RefFrames               : 4 frames
Codec ID                                 : V_MPEG4/ISO/AVC
Duration                                 : 2 h 19 min
Bit rate                                 : 1 350 kb/s
Width                                    : 720 pixels
Height                                   : 420 pixels
Display aspect ratio                     : 2.40:1
Frame rate mode                          : Constant
Frame rate                               : 25.000 FPS
Color space                              : YUV
Chroma subsampling                       : 4:2:0
Bit depth                                : 8 bits
Scan type                                : Progressive
Bits/(Pixel*Frame)                       : 0.179
Stream size                              : 1.32 GiB (94%)
Writing library                          : x264 core 142 r2479 dd79a61
Encoding settings                        : cabac=1 / ref=4 / deblock=1:0:0 / analyse=0x3:0x113 / me=umh / subme=9 / psy=1 / psy_rd=1.00:0.00 / mixed_ref=0 / me_range=16 / chroma_me=1 / trellis=2 / 8x8dct=1 / cqm=0 / deadzone=21,11 / fast_pskip=1 / chroma_qp_offset=-2 / threads=72 / lookahead_threads=3 / sliced_threads=0 / nr=0 / decimate=1 / interlaced=0 / bluray_compat=0 / constrained_intra=0 / bframes=8 / b_pyramid=2 / b_adapt=1 / b_bias=0 / direct=1 / weightb=1 / open_gop=0 / weightp=2 / keyint=250 / keyint_min=25 / scenecut=40 / intra_refresh=0 / rc_lookahead=10 / rc=abr / mbtree=1 / bitrate=1350 / ratetol=1.0 / qcomp=0.60 / qpmin=0 / qpmax=69 / qpstep=4 / vbv_maxrate=20000 / vbv_bufsize=25000 / nal_hrd=none / filler=0 / ip_ratio=1.40 / aq=1:1.00
Default                                  : Yes
Forced                                   : No
Color range                              : Limited
Color primaries                          : BT.601 PAL
Transfer characteristics                 : BT.709
Matrix coefficients                      : BT.601

Audio
ID                                       : 2
Format                                   : AAC LC
Format/Info                              : Advanced Audio Codec Low Complexity
Codec ID                                 : A_AAC-2
Duration                                 : 2 h 19 min
Bit rate                                 : 80.2 kb/s
Channel(s)                               : 2 channels
Channel layout                           : L R
Sampling rate                            : 48.0 kHz
Frame rate                               : 46.875 FPS (1024 SPF)
Compression mode                         : Lossy
Delay relative to video                  : -21 ms
Stream size                              : 79.8 MiB (6%)
Default                                  : Yes
Forced                                   : No



Battalion 609 (2019) Hindi - PreDVDRip - x264 - UNTOUCHED - AAC-AF ExclusiveBattalion 609 (2019) Hindi - PreDVDRip - x264 - UNTOUCHED - AAC-AF ExclusiveBattalion 609 (2019) Hindi - PreDVDRip - x264 - UNTOUCHED - AAC-AF ExclusiveBattalion 609 (2019) Hindi - PreDVDRip - x264 - UNTOUCHED - AAC-AF ExclusiveBattalion 609 (2019) Hindi - PreDVDRip - x264 - UNTOUCHED - AAC-AF Exclusive


SINGLE DIRECT FAST LINKS

https://www.heroupload.com/1fbb77c7ff1c81cd/Battalion.609.2019.Hindi.PreDVDRip.x264.UNTOUCHED.AAC-AmaderForum.mkv



Buy Premium From My Links & Support Me

Теги: Battalion

Dear visitor, you are browsing our website as Guest.
We strongly recommend you to register and login to view hidden contents.

Comments:

Add Comments