Set as default Homepage|Bookmark
 
 
» » Antariksham 9000 kmph (2018) Telugu - 1080p - WEB-DL - UNTOUCHED - AVC - DD5.1-TMV
Advertise

Antariksham 9000 kmph (2018) Telugu - 1080p - WEB-DL - UNTOUCHED - AVC - DD5.1-TMV

Author: wroser on 19-01-2019, 18:22
Antariksham 9000 kmph (2018) Telugu - 1080p - WEB-DL - UNTOUCHED - AVC - DD5.1-TMV





Format                                   : Matroska
Format version                           : Version 4
File size                                : 3.59 GiB
Duration                                 : 2 h 19 min
Overall bit rate                         : 3 675 kb/s
Encoded date                             : UTC 2019-01-19 11:51:53
Writing application                      : mkvmerge v25.0.0 ('Prog Noir') 32-bit
Writing library                          : libebml v1.3.6 + libmatroska v1.4.9

Video
ID                                       : 1
Format                                   : AVC
Format/Info                              : Advanced Video Codec
Format profile                           : High@L4
Format settings                          : CABAC / 4 Ref Frames
Format settings, CABAC                   : Yes
Format settings, RefFrames               : 4 frames
Codec ID                                 : V_MPEG4/ISO/AVC
Duration                                 : 2 h 19 min
Bit rate                                 : 3 033 kb/s
Width                                    : 1 920 pixels
Height                                   : 816 pixels
Display aspect ratio                     : 2.35:1
Frame rate mode                          : Constant
Frame rate                               : 24.000 FPS
Color space                              : YUV
Chroma subsampling                       : 4:2:0
Bit depth                                : 8 bits
Scan type                                : Progressive
Bits/(Pixel*Frame)                       : 0.081
Stream size                              : 2.96 GiB (83%)
Default                                  : Yes
Forced                                   : No
Color range                              : Limited
Color primaries                          : BT.709
Transfer characteristics                 : BT.709
Matrix coefficients                      : BT.709

Audio
ID                                       : 2
Format                                   : E-AC-3
Format/Info                              : Enhanced AC-3
Commercial name                          : Dolby Digital Plus
Codec ID                                 : A_EAC3
Duration                                 : 2 h 19 min
Bit rate mode                            : Constant
Bit rate                                 : 640 kb/s
Channel(s)                               : 6 channels
Channel layout                           : L R C LFE Ls Rs
Sampling rate                            : 48.0 kHz
Frame rate                               : 31.250 FPS (1536 SPF)
Compression mode                         : Lossy
Stream size                              : 640 MiB (17%)
Title                                    : Telugu
Language                                 : Telugu
Service kind                             : Complete Main
Default                                  : No
Forced                                   : No

Text
ID                                       : 3
Format                                   : UTF-8
Codec ID                                 : S_TEXT/UTF8
Codec ID/Info                            : UTF-8 Plain Text
Duration                                 : 2 h 13 min
Bit rate                                 : 57 b/s
Count of elements                        : 1795
Stream size                              : 56.3 KiB (0%)
Title                                    : English [SDH]
Language                                 : English
Default                                  : No
Forced                                   : No

Menu
00:00:00.000                             : en:Studio Logos
00:00:24.000                             : en:Opening Credits, Title Sequence
00:03:10.000                             : en:Scene 3
00:10:13.000                             : en:Scene 4
00:27:51.000                             : en:Scene 5
00:43:40.000                             : en:Scene 6
00:51:49.000                             : en:Scene 7
01:06:01.000                             : en:Scene 8
01:23:54.000                             : en:Scene 9
01:41:56.000                             : en:Scene 10
01:56:08.000                             : en:Scene 11
02:12:50.000                             : en:Scene 12
02:14:31.000                             : en:End Credits




Antariksham 9000 kmph (2018) Telugu - 1080p - WEB-DL - UNTOUCHED - AVC - DD5.1-TMVAntariksham 9000 kmph (2018) Telugu - 1080p - WEB-DL - UNTOUCHED - AVC - DD5.1-TMVAntariksham 9000 kmph (2018) Telugu - 1080p - WEB-DL - UNTOUCHED - AVC - DD5.1-TMVAntariksham 9000 kmph (2018) Telugu - 1080p - WEB-DL - UNTOUCHED - AVC - DD5.1-TMVAntariksham 9000 kmph (2018) Telugu - 1080p - WEB-DL - UNTOUCHED - AVC - DD5.1-TMVAntariksham 9000 kmph (2018) Telugu - 1080p - WEB-DL - UNTOUCHED - AVC - DD5.1-TMVAntariksham 9000 kmph (2018) Telugu - 1080p - WEB-DL - UNTOUCHED - AVC - DD5.1-TMV


SINGLE DIRECT FAST LINKS

https://www.heroupload.com/cd4d77adb2d44fe7/Antariksham.9000KMPH.2018.Telugu.1080p.WEB-DL.UNTOUCHED.AVC.DD5.1.ESub-TMV.mkv


1GB LINKS


https://www.heroupload.com/39743889ba009bec/Antariksham.9000KMPH.2018.Telugu.1080p.WEB-DL.UNTOUCHED.AVC.DD5.1.ESub-TMV.part1.rar
https://www.heroupload.com/564e4196343795f8/Antariksham.9000KMPH.2018.Telugu.1080p.WEB-DL.UNTOUCHED.AVC.DD5.1.ESub-TMV.part2.rar
https://www.heroupload.com/0d8a37ea0920ba80/Antariksham.9000KMPH.2018.Telugu.1080p.WEB-DL.UNTOUCHED.AVC.DD5.1.ESub-TMV.part3.rar
https://www.heroupload.com/35dfed44ad28c923/Antariksham.9000KMPH.2018.Telugu.1080p.WEB-DL.UNTOUCHED.AVC.DD5.1.ESub-TMV.part4.rar


Buy Premium From My Links & Support Me

Теги: Antariksham

Dear visitor, you are browsing our website as Guest.
We strongly recommend you to register and login to view hidden contents.

Comments:

Add Comments