Set as default Homepage|Bookmark
 
 
» » Next Enti (2018) Telugu - 1080p - WEB-DL - UNTOUCHED - AVC - DD5.1 - ESub-TMV
Advertise

Next Enti (2018) Telugu - 1080p - WEB-DL - UNTOUCHED - AVC - DD5.1 - ESub-TMV

Author: wroser on 11-01-2019, 19:51
Next Enti (2018) Telugu - 1080p - WEB-DL - UNTOUCHED - AVC - DD5.1 - ESub-TMV





Format                                   : Matroska
Format version                           : Version 4
File size                                : 2.61 GiB
Duration                                 : 1 h 57 min
Overall bit rate mode                    : Variable
Overall bit rate                         : 3 188 kb/s
Encoded date                             : UTC 2019-01-10 11:55:29 / UTC 2018-12-22 07:36:49
Writing application                      : mkvmerge v11.0.0 ('Alive') 64bit
Writing library                          : libebml v1.3.4 + libmatroska v1.4.5 / Lavf58.0.0

Video
ID                                       : 1
Format                                   : AVC
Format/Info                              : Advanced Video Codec
Format profile                           : High@L4
Format settings                          : CABAC / 4 Ref Frames
Format settings, CABAC                   : Yes
Format settings, RefFrames               : 4 frames
Codec ID                                 : V_MPEG4/ISO/AVC
Duration                                 : 1 h 57 min
Bit rate mode                            : Variable
Bit rate                                 : 2 485 kb/s
Maximum bit rate                         : 20.0 Mb/s
Width                                    : 1 920 pixels
Height                                   : 1 080 pixels
Display aspect ratio                     : 16:9
Frame rate mode                          : Constant
Frame rate                               : 24.000 FPS
Color space                              : YUV
Chroma subsampling                       : 4:2:0
Bit depth                                : 8 bits
Scan type                                : Progressive
Bits/(Pixel*Frame)                       : 0.050
Stream size                              : 2.03 GiB (78%)
Writing library                          : x264 core 148 r2715 7e75228
Encoding settings                        : cabac=1 / ref=4 / deblock=1:0:0 / analyse=0x3:0x111 / me=umh / subme=10 / psy=1 / psy_rd=1.00:0.00 / mixed_ref=1 / me_range=120 / chroma_me=1 / trellis=2 / 8x8dct=1 / cqm=0 / deadzone=21,11 / fast_pskip=1 / chroma_qp_offset=-2 / threads=6 / lookahead_threads=1 / sliced_threads=0 / nr=0 / decimate=1 / interlaced=0 / bluray_compat=0 / stitchable=1 / constrained_intra=0 / bframes=16 / b_pyramid=2 / b_adapt=2 / b_bias=0 / direct=3 / weightb=1 / open_gop=0 / weightp=2 / keyint=240 / keyint_min=121 / scenecut=0 / intra_refresh=0 / rc_lookahead=240 / rc=crf / mbtree=1 / crf=20.0 / qcomp=0.50 / qpmin=6 / qpmax=51 / qpstep=4 / vbv_maxrate=20000 / vbv_bufsize=25000 / crf_max=0.0 / nal_hrd=vbr / filler=0 / ip_ratio=1.40 / aq=1:0.80
Default                                  : Yes
Forced                                   : No
Statistics Tags Issue                    : mkvmerge v11.0.0 ('Alive') 64bit 2019-01-10 11:55:29 / mkvmerge v11.0.0 ('Alive') 64bit 2019-01-10 11:55:29 / UTC 2018-12-22 07:36:49
FromStats_BitRate                        : 2546390
FromStats_Duration                       : 01:57:02.709000000
FromStats_FrameCount                     : 168545
FromStats_StreamSize                     : 2235319581

Audio
ID                                       : 2
Format                                   : E-AC-3
Format/Info                              : Enhanced AC-3
Commercial name                          : Dolby Digital Plus
Codec ID                                 : A_EAC3
Duration                                 : 1 h 57 min
Bit rate mode                            : Constant
Bit rate                                 : 640 kb/s
Channel(s)                               : 6 channels
Channel layout                           : L R C LFE Ls Rs
Sampling rate                            : 48.0 kHz
Frame rate                               : 31.250 FPS (1536 SPF)
Compression mode                         : Lossy
Stream size                              : 536 MiB (20%)
Service kind                             : Complete Main
Default                                  : Yes
Forced                                   : No
Encoded date                             : UTC 2018-12-22 07:36:49
Statistics Tags Issue                    : mkvmerge v11.0.0 ('Alive') 64bit 2019-01-10 11:55:29 / mkvmerge v11.0.0 ('Alive') 64bit 2019-01-10 11:55:29 / UTC 2018-12-22 07:36:49
FromStats_BitRate                        : 640000
FromStats_Duration                       : 01:57:03.392000000
FromStats_FrameCount                     : 219481
FromStats_StreamSize                     : 561871360

Text
ID                                       : 3
Format                                   : UTF-8
Codec ID                                 : S_TEXT/UTF8
Codec ID/Info                            : UTF-8 Plain Text
Title                                    : English
Language                                 : English
Default                                  : Yes
Forced                                   : Yes
Statistics Tags Issue                    : mkvmerge v11.0.0 ('Alive') 64bit 2019-01-10 11:55:29 / mkvmerge v11.0.0 ('Alive') 64bit 2019-01-10 11:55:29 / UTC 2018-12-22 07:36:49
FromStats_BitRate                        : 70
FromStats_Duration                       : 01:51:31.375000000
FromStats_FrameCount                     : 1537
FromStats_StreamSize                     : 58945



Next Enti (2018) Telugu - 1080p - WEB-DL - UNTOUCHED - AVC - DD5.1 - ESub-TMVNext Enti (2018) Telugu - 1080p - WEB-DL - UNTOUCHED - AVC - DD5.1 - ESub-TMVNext Enti (2018) Telugu - 1080p - WEB-DL - UNTOUCHED - AVC - DD5.1 - ESub-TMVNext Enti (2018) Telugu - 1080p - WEB-DL - UNTOUCHED - AVC - DD5.1 - ESub-TMVNext Enti (2018) Telugu - 1080p - WEB-DL - UNTOUCHED - AVC - DD5.1 - ESub-TMVNext Enti (2018) Telugu - 1080p - WEB-DL - UNTOUCHED - AVC - DD5.1 - ESub-TMVNext Enti (2018) Telugu - 1080p - WEB-DL - UNTOUCHED - AVC - DD5.1 - ESub-TMVNext Enti (2018) Telugu - 1080p - WEB-DL - UNTOUCHED - AVC - DD5.1 - ESub-TMVNext Enti (2018) Telugu - 1080p - WEB-DL - UNTOUCHED - AVC - DD5.1 - ESub-TMVNext Enti (2018) Telugu - 1080p - WEB-DL - UNTOUCHED - AVC - DD5.1 - ESub-TMV


SINGLE DIRECT FAST LINKS

https://www.heroupload.com/0ea605920bde0bde/Next.Enti.2018.Telugu.WEB-DL.1080p.UNTOUCHED.AVC._DD5.1-TMV.mkv


700MB LINKS

https://www.heroupload.com/8013dbc80ad26788/Next.Enti.2018.Telugu.WEB-DL.1080p.UNTOUCHED.AVC._DD5.1-TMV.part1.rar
https://www.heroupload.com/4dfeb5f40b88637d/Next.Enti.2018.Telugu.WEB-DL.1080p.UNTOUCHED.AVC._DD5.1-TMV.part2.rar
https://www.heroupload.com/589175d1948e586e/Next.Enti.2018.Telugu.WEB-DL.1080p.UNTOUCHED.AVC._DD5.1-TMV.part3.rar
https://www.heroupload.com/79b41842df3ffa65/Next.Enti.2018.Telugu.WEB-DL.1080p.UNTOUCHED.AVC._DD5.1-TMV.part4.rar



Buy Premium From My Links & Support Me

Теги: Next

Dear visitor, you are browsing our website as Guest.
We strongly recommend you to register and login to view hidden contents.

Comments:

Add Comments