Set as default Homepage|Bookmark
 
 
» » Bad Times At The El Royale (2018) 1080p BluRay x264 DD5.1 [Dual Audio][Hindi+English]
Advertise

Bad Times At The El Royale (2018) 1080p BluRay x264 DD5.1 [Dual Audio][Hindi+English]

Author: wroser on 8-01-2019, 14:42
Bad Times At The El Royale (2018) 1080p BluRay x264 DD5.1 [Dual Audio][Hindi+English]





File size : 4.87 GiB
Duration : 2 h 21 min
Overall bit rate : 4 924 kb/s
Movie name : Bad Times At The El Royale (2018) 1080p BluRay x264 Dual Audio [Hindi - Eng] DD5.1 - MSUBS ~ Ranvijay

Video
ID : 1
Format : AVC
Format/Info : Advanced Video Codec
Duration : 2 h 21 min
Bit rate : 4 000 kb/s
Width : 1 920 pixels
Height : 800 pixels
Display aspect ratio : 2.40:1
Frame rate mode : Constant
Frame rate : 23.976 (24000/1001) FPS
Color space : YUV
Chroma subsampling : 4:2:0
Bit depth : 8 bits
Scan type : Progressive
Bits/(Pixel*Frame) : 0.109
Stream size : 3.96 GiB (81%)
Title : ~Ranvijay~

Audio #1
ID : 2
Format : AC-3
Format/Info : Audio Coding 3
Codec ID : A_AC3
Duration : 2 h 21 min
Bit rate mode : Constant
Bit rate : 448 kb/s
Channel(s) : 6 channels
Channel positions : Front: L C R, Side: L R, LFE
Sampling rate : 48.0 kHz
Frame rate : 31.250 FPS (1536 SPF)
Bit depth : 16 bits
Compression mode : Lossy
Stream size : 454 MiB (9%)
Title : ~Ranvijay~
Language : Hindi
Service kind : Complete Main
Default : Yes
Forced : Yes

Audio #2
ID : 3
Format : AC-3
Format/Info : Audio Coding 3
Codec ID : A_AC3
Duration : 2 h 21 min
Bit rate mode : Constant
Bit rate : 448 kb/s
Channel(s) : 6 channels
Channel positions : Front: L C R, Side: L R, LFE
Sampling rate : 48.0 kHz
Frame rate : 31.250 FPS (1536 SPF)
Bit depth : 16 bits
Compression mode : Lossy
Stream size : 454 MiB (9%)
Title : ~Ranvijay~
Language : English
Service kind : Complete Main
Default : No
Forced : No

Text #1
ID : 4
Format : PGS
Muxing mode : zlib
Codec ID : S_HDMV/PGS
Codec ID/Info : Picture based subtitle format used on BDs/HD-DVDs
Duration : 2 h 18 min
Bit rate : 31.1 kb/s
Count of elements : 3422
Stream size : 30.7 MiB (1%)
Title : ~Ranvijay~
Language : English
Default : Yes
Forced : Yes

Text #2
ID : 5
Format : PGS
Muxing mode : zlib
Codec ID : S_HDMV/PGS
Codec ID/Info : Picture based subtitle format used on BDs/HD-DVDs
Duration : 2 h 18 min
Bit rate : 31.1 kb/s
Count of elements : 3422
Stream size : 30.7 MiB (1%)
Title : ~Ranvijay~
Language : English
Default : No
Forced : No

Text #3
ID : 6
Format : PGS
Muxing mode : zlib
Codec ID : S_HDMV/PGS
Codec ID/Info : Picture based subtitle format used on BDs/HD-DVDs
Duration : 2 h 20 min
Bit rate : 21.7 kb/s
Count of elements : 2860
Stream size : 21.8 MiB (0%)
Title : ~Ranvijay~
Language : Hindi
Default : No
Forced : No

Menu
00:00:00.000 : en:Chapter 01
00:04:19.592 : en:Chapter 02
00:19:21.994 : en:Chapter 03
00:34:32.779 : en:Chapter 04
00:49:24.711 : en:Chapter 05
00:51:19.868 : en:Chapter 06
01:16:01.473 : en:Chapter 07
01:37:13.369 : en:Chapter 08
02:03:56.720 : en:Chapter 09
02:14:09.041 : en:Chapter 10
02:15:45.428 : en:Chapter 11 





Bad Times At The El Royale (2018) 1080p BluRay x264 DD5.1 [Dual Audio][Hindi+English]
Bad Times At The El Royale (2018) 1080p BluRay x264 DD5.1 [Dual Audio][Hindi+English]
Bad Times At The El Royale (2018) 1080p BluRay x264 DD5.1 [Dual Audio][Hindi+English]
Bad Times At The El Royale (2018) 1080p BluRay x264 DD5.1 [Dual Audio][Hindi+English]
Bad Times At The El Royale (2018) 1080p BluRay x264 DD5.1 [Dual Audio][Hindi+English]
Bad Times At The El Royale (2018) 1080p BluRay x264 DD5.1 [Dual Audio][Hindi+English]
Bad Times At The El Royale (2018) 1080p BluRay x264 DD5.1 [Dual Audio][Hindi+English]
Bad Times At The El Royale (2018) 1080p BluRay x264 DD5.1 [Dual Audio][Hindi+English]
Bad Times At The El Royale (2018) 1080p BluRay x264 DD5.1 [Dual Audio][Hindi+English]
Bad Times At The El Royale (2018) 1080p BluRay x264 DD5.1 [Dual Audio][Hindi+English]
Bad Times At The El Royale (2018) 1080p BluRay x264 DD5.1 [Dual Audio][Hindi+English]
Bad Times At The El Royale (2018) 1080p BluRay x264 DD5.1 [Dual Audio][Hindi+English]

SINGLE DIRECT FAST LINKS

https://www.heroupload.com/2e27eeef930c383c/Bad.Times.At.The.El.Royale.2018.1080p.BluRay.x264.Dual.Audio.Hindi+English.DD5.1.MSUBS-Ranvijay.mkv


1GB LINKS


https://www.heroupload.com/14df15b8b6025dd1/Bad.Times.At.The.El.Royale.2018.1080p.BluRay.x264.Dual.Audio.Hindi+English.DD5.1.MSUBS-Ranvijay.part1.rar
https://www.heroupload.com/7709c4d6c8b7b8bf/Bad.Times.At.The.El.Royale.2018.1080p.BluRay.x264.Dual.Audio.Hindi+English.DD5.1.MSUBS-Ranvijay.part2.rar
https://www.heroupload.com/687313fdbbe7579e/Bad.Times.At.The.El.Royale.2018.1080p.BluRay.x264.Dual.Audio.Hindi+English.DD5.1.MSUBS-Ranvijay.part3.rar
https://www.heroupload.com/10ccbe1a52d26968/Bad.Times.At.The.El.Royale.2018.1080p.BluRay.x264.Dual.Audio.Hindi+English.DD5.1.MSUBS-Ranvijay.part4.rar
https://www.heroupload.com/101510bf9fd850f5/Bad.Times.At.The.El.Royale.2018.1080p.BluRay.x264.Dual.Audio.Hindi+English.DD5.1.MSUBS-Ranvijay.part5.rar



Buy Premium From My Links & Support Me

Теги: Bad

Dear visitor, you are browsing our website as Guest.
We strongly recommend you to register and login to view hidden contents.

Comments:

Add Comments