Set as default Homepage|Bookmark
 
 
» » @Narthanasala (2018) Telugu - 720p - HDTV - UNTOUCHED - AVC - AAC-TMV
Advertise

@Narthanasala (2018) Telugu - 720p - HDTV - UNTOUCHED - AVC - AAC-TMV

Author: wroser on 7-01-2019, 15:56
@Narthanasala (2018) Telugu - 720p - HDTV - UNTOUCHED - AVC - AAC-TMV






Format                                   : MPEG-4
Format profile                           : Base Media
Codec ID                                 : isom (isom/iso2/avc1/mp41)
File size                                : 1.76 GiB
Duration                                 : 2 h 4 min
Overall bit rate                         : 2 018 kb/s
Writing application                      : Lavf55.19.104

Video
ID                                       : 1
Format                                   : AVC
Format/Info                              : Advanced Video Codec
Format profile                           : Main@L3.1
Format settings                          : CABAC / 4 Ref Frames
Format settings, CABAC                   : Yes
Format settings, RefFrames               : 4 frames
Codec ID                                 : avc1
Codec ID/Info                            : Advanced Video Coding
Duration                                 : 2 h 4 min
Bit rate                                 : 1 949 kb/s
Width                                    : 1 280 pixels
Height                                   : 720 pixels
Display aspect ratio                     : 16:9
Frame rate mode                          : Constant
Frame rate                               : 25.000 FPS
Color space                              : YUV
Chroma subsampling                       : 4:2:0
Bit depth                                : 8 bits
Scan type                                : Progressive
Bits/(Pixel*Frame)                       : 0.085
Stream size                              : 1.70 GiB (97%)
Codec configuration box                  : avcC

Audio
ID                                       : 2
Format                                   : AAC LC
Format/Info                              : Advanced Audio Codec Low Complexity
Codec ID                                 : mp4a-40-2
Duration                                 : 2 h 4 min
Bit rate mode                            : Constant
Bit rate                                 : 63.8 kb/s
Channel(s)                               : 2 channels
Channel layout                           : L R
Sampling rate                            : 44.1 kHz
Frame rate                               : 43.066 FPS (1024 SPF)
Compression mode                         : Lossy
Stream size                              : 57.0 MiB (3%)
Default                                  : Yes
Alternate group                          : 1



@Narthanasala (2018) Telugu - 720p - HDTV - UNTOUCHED - AVC - AAC-TMV@Narthanasala (2018) Telugu - 720p - HDTV - UNTOUCHED - AVC - AAC-TMV@Narthanasala (2018) Telugu - 720p - HDTV - UNTOUCHED - AVC - AAC-TMV@Narthanasala (2018) Telugu - 720p - HDTV - UNTOUCHED - AVC - AAC-TMV@Narthanasala (2018) Telugu - 720p - HDTV - UNTOUCHED - AVC - AAC-TMV

SINGLE DIRECT FAST LINKS

https://www.heroupload.com/3e93972f8ea339c0/@Narthanasala.2018.Telugu.HDTV.720p.UNTOUCHED-TMV.mp4




Buy Premium From My Links & Support Me

Теги: Narthanasala

Dear visitor, you are browsing our website as Guest.
We strongly recommend you to register and login to view hidden contents.

Comments:

Add Comments