Set as default Homepage|Bookmark
 
 
» » Sammohanam (2018) Telugu - 720p - HDTV - UNTOUCHED - AVC - AAC-TMV
Advertise

Sammohanam (2018) Telugu - 720p - HDTV - UNTOUCHED - AVC - AAC-TMV

Author: wroser on 7-01-2019, 15:41
Sammohanam (2018) Telugu - 720p - HDTV - UNTOUCHED - AVC - AAC-TMV





Format                                   : MPEG-4
Format profile                           : Base Media
Codec ID                                 : isom (isom/iso2/avc1/mp41)
File size                                : 1.59 GiB
Duration                                 : 2 h 11 min
Overall bit rate mode                    : Variable
Overall bit rate                         : 1 731 kb/s
Writing application                      : Lavf57.71.100

Video
ID                                       : 1
Format                                   : AVC
Format/Info                              : Advanced Video Codec
Format profile                           : Main@L3.1
Format settings                          : CABAC / 3 Ref Frames
Format settings, CABAC                   : Yes
Format settings, RefFrames               : 3 frames
Codec ID                                 : avc1
Codec ID/Info                            : Advanced Video Coding
Duration                                 : 2 h 11 min
Bit rate                                 : 1 599 kb/s
Width                                    : 1 280 pixels
Height                                   : 720 pixels
Display aspect ratio                     : 16:9
Frame rate mode                          : Variable
Frame rate                               : 25.000 FPS
Minimum frame rate                       : 6.248 FPS
Maximum frame rate                       : 25.000 FPS
Standard                                 : Component
Color space                              : YUV
Chroma subsampling                       : 4:2:0
Bit depth                                : 8 bits
Scan type                                : Progressive
Bits/(Pixel*Frame)                       : 0.069
Stream size                              : 1.47 GiB (92%)
Color range                              : Limited
Color primaries                          : BT.709
Transfer characteristics                 : BT.709
Matrix coefficients                      : BT.709
Codec configuration box                  : avcC

Audio
ID                                       : 2
Format                                   : AAC LC
Format/Info                              : Advanced Audio Codec Low Complexity
Codec ID                                 : mp4a-40-2
Duration                                 : 2 h 11 min
Bit rate mode                            : Variable
Bit rate                                 : 126 kb/s
Maximum bit rate                         : 128 kb/s
Channel(s)                               : 2 channels
Channel layout                           : L R
Sampling rate                            : 44.1 kHz
Frame rate                               : 43.066 FPS (1024 SPF)
Compression mode                         : Lossy
Stream size                              : 118 MiB (7%)
Language                                 : Telugu
Default                                  : Yes
Alternate group                          : 1



Sammohanam (2018) Telugu - 720p - HDTV - UNTOUCHED - AVC - AAC-TMVSammohanam (2018) Telugu - 720p - HDTV - UNTOUCHED - AVC - AAC-TMVSammohanam (2018) Telugu - 720p - HDTV - UNTOUCHED - AVC - AAC-TMVSammohanam (2018) Telugu - 720p - HDTV - UNTOUCHED - AVC - AAC-TMVSammohanam (2018) Telugu - 720p - HDTV - UNTOUCHED - AVC - AAC-TMV


SINGLE DIRECT FAST LINKS


https://www.heroupload.com/198250aeb2da00f6/Sammohanam.2018.Telugu.HDTV.720p.UNTOCUHED.AVC.AAC-TMV.mp4



Buy Premium From My Links & Support Me

Теги: Sammohanam

Dear visitor, you are browsing our website as Guest.
We strongly recommend you to register and login to view hidden contents.

Comments:

Add Comments