Set as default Homepage|Bookmark
 
 
» » Lady Tiger (2018) 1080p - WEB-HD - AVC [Dual Audio][Telugu-Line+Malayalam]
Advertise

Lady Tiger (2018) 1080p - WEB-HD - AVC [Dual Audio][Telugu-Line+Malayalam]

Author: wroser on 4-01-2019, 15:08
Lady Tiger (2018) 1080p - WEB-HD - AVC [Dual Audio][Telugu-Line+Malayalam]





Format                                   : Matroska
Format version                           : Version 4
File size                                : 2.42 GiB
Duration                                 : 2 h 11 min
Overall bit rate mode                    : Variable
Overall bit rate                         : 2 642 kb/s
Encoded date                             : UTC 2019-01-04 13:43:52
Writing application                      : mkvmerge v29.0.0 ('Like It Or Not') 32-bit
Writing library                          : libebml v1.3.6 + libmatroska v1.4.9

Video
ID                                       : 1
Format                                   : AVC
Format/Info                              : Advanced Video Codec
Format profile                           : High@L4
Format settings                          : CABAC / 2 Ref Frames
Format settings, CABAC                   : Yes
Format settings, RefFrames               : 2 frames
Codec ID                                 : V_MPEG4/ISO/AVC
Duration                                 : 2 h 11 min
Bit rate                                 : 2 432 kb/s
Width                                    : 1 920 pixels
Height                                   : 1 080 pixels
Display aspect ratio                     : 16:9
Frame rate mode                          : Constant
Frame rate                               : 24.000 FPS
Color space                              : YUV
Chroma subsampling                       : 4:2:0
Bit depth                                : 8 bits
Scan type                                : Progressive
Bits/(Pixel*Frame)                       : 0.049
Stream size                              : 2.23 GiB (92%)
Language                                 : Malayalam
Default                                  : Yes
Forced                                   : No
Color range                              : Limited
Color primaries                          : BT.709
Transfer characteristics                 : BT.709
Matrix coefficients                      : BT.709

Audio #1
ID                                       : 2
Format                                   : MPEG Audio
Format version                           : Version 1
Format profile                           : Layer 3
Format settings                          : Joint stereo
Codec ID                                 : A_MPEG/L3
Codec ID/Hint                            : MP3
Duration                                 : 2 h 11 min
Bit rate mode                            : Variable
Bit rate                                 : 81.9 kb/s
Nominal bit rate                         : 96.0 kb/s
Channel(s)                               : 2 channels
Sampling rate                            : 44.1 kHz
Frame rate                               : 38.281 FPS (1152 SPF)
Compression mode                         : Lossy
Stream size                              : 76.9 MiB (3%)
Writing library                          : LAME3.99r
Encoding settings                        : -m j -V 4 -q 3 -lowpass 15.1 --abr 96
Language                                 : Telugu
Default                                  : Yes
Forced                                   : No

Audio #2
ID                                       : 3
Format                                   : AAC LC
Format/Info                              : Advanced Audio Codec Low Complexity
Codec ID                                 : A_AAC-2
Duration                                 : 2 h 11 min
Bit rate                                 : 126 kb/s
Channel(s)                               : 2 channels
Channel layout                           : L R
Sampling rate                            : 44.1 kHz
Frame rate                               : 43.066 FPS (1024 SPF)
Compression mode                         : Lossy
Stream size                              : 118 MiB (5%)
Language                                 : man
Default                                  : No
Forced                                   : No



Lady Tiger (2018) 1080p - WEB-HD - AVC [Dual Audio][Telugu-Line+Malayalam]Lady Tiger (2018) 1080p - WEB-HD - AVC [Dual Audio][Telugu-Line+Malayalam]Lady Tiger (2018) 1080p - WEB-HD - AVC [Dual Audio][Telugu-Line+Malayalam]Lady Tiger (2018) 1080p - WEB-HD - AVC [Dual Audio][Telugu-Line+Malayalam]Lady Tiger (2018) 1080p - WEB-HD - AVC [Dual Audio][Telugu-Line+Malayalam]

SINGLE DIRECT FAST LINKS

https://www.heroupload.com/92d1448bdb55c720/Lady.Tiger.2018.HDRip.1080p.Telugu.Line+Malayalam-TMV.mkv


700MB LINKS


https://www.heroupload.com/32fc1056cda5f0dd/Lady.Tiger.2018.HDRip.1080p.Telugu.Line+Malayalam-TMV.part1.rar
https://www.heroupload.com/58ad45a5e3c7def7/Lady.Tiger.2018.HDRip.1080p.Telugu.Line+Malayalam-TMV.part2.rar
https://www.heroupload.com/b7f39867dc9114db/Lady.Tiger.2018.HDRip.1080p.Telugu.Line+Malayalam-TMV.part3.rar
https://www.heroupload.com/00a9c309a53bc82c/Lady.Tiger.2018.HDRip.1080p.Telugu.Line+Malayalam-TMV.part4.rar


Buy Premium From My Links & Support Me

Теги: Lady

Dear visitor, you are browsing our website as Guest.
We strongly recommend you to register and login to view hidden contents.

Comments:

Add Comments