Set as default Homepage|Bookmark
 
 
» » Fantastic Beasts: The Crimes of Grindelwald (2018) 720p HDRip x264 [Hin+Telu+Tam+Eng]
Advertise

Fantastic Beasts: The Crimes of Grindelwald (2018) 720p HDRip x264 [Hin+Telu+Tam+Eng]

Author: wroser on 16-12-2018, 12:04
Fantastic Beasts: The Crimes of Grindelwald (2018) 720p HDRip x264 [Hin+Telu+Tam+Eng]







Fantastic Beasts: The Crimes of Grindelwald (2018) 720p HDRip x264 [Multi Line Audios][Hindi+Telugu+Tamil+Eng]
Format                      : Matroska
Format version              : Version 4 / Version 2
File size                   : 1.05 GiB
Duration                    : 2 h 13 min
Overall bit rate mode       : Variable
Overall bit rate            : 1 119 kb/s
Encoded date                : UTC 2018-12-15 18:56:50
Writing application         : mkvmerge v7.1.0 ('Good Love') 32bit built on Jul 27 2014 12:59:18
Writing library             : libebml v1.3.0 + libmatroska v1.4.1

Video
ID                          : 1
Format                      : AVC
Format/Info                 : Advanced Video Codec
Format profile              : High@L3.2
Format settings, CABAC      : Yes
Format settings, RefFrames  : 4 frames
Codec ID                    : V_MPEG4/ISO/AVC
Duration                    : 2 h 13 min
Bit rate                    : 736 kb/s
Width                       : 1 280 pixels
Height                      : 536 pixels
Display aspect ratio        : 2.40:1
Frame rate mode             : Constant
Frame rate                  : 60.000 FPS
Color space                 : YUV
Chroma subsampling          : 4:2:0
Bit depth                   : 8 bits
Scan type                   : Progressive
Bits/(Pixel*Frame)          : 0.018
Stream size                 : 699 MiB (65%)
Writing library             : x264 core 155 r2901 7d0ff22
Encoding settings           : cabac=1 / ref=3 / deblock=1:0:0 / analyse=0x3:0x113 / me=hex / subme=7 / psy=1 / psy_rd=1.00:0.00 / mixed_ref=1 / me_range=16 / chroma_me=1 / trellis=1 / 8x8dct=1 / cqm=0 / deadzone=21,11 / fast_pskip=1 / chroma_qp_offset=-2 / threads=17 / lookahead_threads=2 / sliced_threads=0 / nr=0 / decimate=1 / interlaced=0 / bluray_compat=0 / constrained_intra=0 / bframes=3 / b_pyramid=2 / b_adapt=1 / b_bias=0 / direct=1 / weightb=1 / open_gop=0 / weightp=2 / keyint=600 / keyint_min=60 / scenecut=40 / intra_refresh=0 / rc_lookahead=40 / rc=abr / mbtree=1 / bitrate=736 / ratetol=1.0 / qcomp=0.60 / qpmin=0 / qpmax=69 / qpstep=4 / ip_ratio=1.40 / aq=1:1.00
Language                    : English
Default                     : Yes
Forced                      : No

Audio #1
ID                          : 2
Format                      : MPEG Audio
Format version              : Version 1
Format profile              : Layer 3
Mode                        : Joint stereo
Mode extension              : MS Stereo
Codec ID                    : A_MPEG/L3
Codec ID/Hint               : MP3
Duration                    : 2 h 13 min
Bit rate mode               : Variable
Bit rate                    : 96.0 kb/s
Channel(s)                  : 2 channels
Sampling rate               : 44.1 kHz
Frame rate                  : 38.281 FPS (1152 SPF)
Compression mode            : Lossy
Stream size                 : 92.7 MiB (9%)
Writing library             : LAME3.99r
Encoding settings           : -m j -V 4 -q 3 -lowpass 15.1 --abr 96
Language                    : Telugu
Default                     : Yes
Forced                      : No

Audio #2
ID                          : 3
Format                      : MPEG Audio
Format version              : Version 1
Format profile              : Layer 3
Mode                        : Joint stereo
Mode extension              : MS Stereo
Codec ID                    : A_MPEG/L3
Codec ID/Hint               : MP3
Duration                    : 2 h 13 min
Bit rate mode               : Variable
Bit rate                    : 102 kb/s
Nominal bit rate            : 96.0 kb/s
Channel(s)                  : 2 channels
Sampling rate               : 48.0 kHz
Frame rate                  : 41.667 FPS (1152 SPF)
Compression mode            : Lossy
Stream size                 : 97.2 MiB (9%)
Writing library             : LAME3.99r
Encoding settings           : -m j -V 4 -q 3 -lowpass 15.1 --abr 96
Language                    : Tamil
Default                     : No
Forced                      : No

Audio #3
ID                          : 4
Format                      : MPEG Audio
Format version              : Version 1
Format profile              : Layer 3
Mode                        : Joint stereo
Mode extension              : MS Stereo
Codec ID                    : A_MPEG/L3
Codec ID/Hint               : MP3
Duration                    : 2 h 13 min
Bit rate mode               : Variable
Bit rate                    : 89.4 kb/s
Nominal bit rate            : 96.0 kb/s
Channel(s)                  : 2 channels
Sampling rate               : 44.1 kHz
Frame rate                  : 38.281 FPS (1152 SPF)
Compression mode            : Lossy
Stream size                 : 85.5 MiB (8%)
Writing library             : LAME3.99r
Encoding settings           : -m j -V 4 -q 3 -lowpass 15.1 --abr 96
Language                    : Hindi
Default                     : No
Forced                      : No

Audio #4
ID                          : 5
Format                      : MPEG Audio
Format version              : Version 1
Format profile              : Layer 3
Mode                        : Joint stereo
Mode extension              : MS Stereo
Codec ID                    : A_MPEG/L3
Codec ID/Hint               : MP3
Duration                    : 2 h 13 min
Bit rate mode               : Variable
Bit rate                    : 96.0 kb/s
Channel(s)                  : 2 channels
Sampling rate               : 44.1 kHz
Frame rate                  : 38.281 FPS (1152 SPF)
Compression mode            : Lossy
Stream size                 : 90.2 MiB (8%)
Writing library             : LAME3.99r
Encoding settings           : -m j -V 4 -q 3 -lowpass 15.1 --abr 96
Language                    : English
Default                     : No
Forced                      : No



Fantastic Beasts: The Crimes of Grindelwald (2018) 720p HDRip x264 [Hin+Telu+Tam+Eng]Fantastic Beasts: The Crimes of Grindelwald (2018) 720p HDRip x264 [Hin+Telu+Tam+Eng]Fantastic Beasts: The Crimes of Grindelwald (2018) 720p HDRip x264 [Hin+Telu+Tam+Eng]Fantastic Beasts: The Crimes of Grindelwald (2018) 720p HDRip x264 [Hin+Telu+Tam+Eng]Fantastic Beasts: The Crimes of Grindelwald (2018) 720p HDRip x264 [Hin+Telu+Tam+Eng]Fantastic Beasts: The Crimes of Grindelwald (2018) 720p HDRip x264 [Hin+Telu+Tam+Eng]

SINGLE DIRECT FAST LINKS



https://www.heroupload.us/cac163798342ec14/Fantastic.Beasts.2.2018.v2.HDRip.720p.HQ.Line.Telugu+Tamil+Hindi+English.mkv





Buy Premium From My Links & Support Me

Теги: Fantastic

Dear visitor, you are browsing our website as Guest.
We strongly recommend you to register and login to view hidden contents.

Comments:

Add Comments
Reply
  • muneer

  • 20 December 2018 18:13
  • Group: Guests
  • ICQ:
  • Registration: --
  • Status:
  • 0 Comment
  • 0 Article
^
Pretty good post. I just stumbled upon your blog and wanted to say that I have really enjoyed reading your blog posts. Any way I'll be subscribing to your feed and I hope you post again soon. Big thanks for the useful info New Year greeting cards
Reply
  • Group: Members
  • ICQ:
  • Registration: 13.06.2018
  • Status: Currently Offline
  • 235 Comment
  • 0 Article
^
Positive site, where did u come up with the information on this posting? I'm pleased I discovered it though, ill be checking back soon to find out what additional posts you include. 토토사이트
Reply
  • Group: Members
  • ICQ:
  • Registration: 13.06.2018
  • Status: Currently Offline
  • 235 Comment
  • 0 Article
^
Thanks so much for sharing this awesome info! I am looking forward to see more postsby you! adore hair dye blue
Reply
  • Group: Guests
  • ICQ:
  • Registration: --
  • Status:
  • 0 Comment
  • 0 Article
^
It was wondering if I could use this write-up on my other website, I will link it back to your website though.Great Thanks.
tampa car accident lawyer
Reply
  • Group: Guests
  • ICQ:
  • Registration: --
  • Status:
  • 0 Comment
  • 0 Article
^
I was reading some of your content on this website and I conceive this internet site is really informative ! Keep on putting up.runescape mobile
Reply
  • Group: Members
  • ICQ:
  • Registration: 13.06.2018
  • Status: Currently Offline
  • 235 Comment
  • 0 Article
^
Thanks for sharing nice information with us. i like your post and all you share with us is uptodate and quite informative, i would like to bookmark the page so i can come here again to read you, as you have done a wonderful job. tubemate download