Set as default Homepage|Bookmark
 
 
» » Ye Mantram Vesave (2018) Telugu - 720p - WEB-DL - AVC - AAC - ESub-TMV
Advertise

Ye Mantram Vesave (2018) Telugu - 720p - WEB-DL - AVC - AAC - ESub-TMV

Author: wroser on 5-12-2018, 19:06
Ye Mantram Vesave (2018) Telugu - 720p - WEB-DL - AVC - AAC - ESub-TMV





Format                      : Matroska
Format version              : Version 4 / Version 2
File size                   : 5.15 GiB
Duration                    : 2 h 2 min
Overall bit rate            : 6 023 kb/s
Encoded date                : UTC 2018-12-05 04:28:34
Writing application         : mkvmerge v25.0.0 ('Prog Noir') 32-bit
Writing library             : libebml v1.3.6 + libmatroska v1.4.9

Video
ID                          : 1
Format                      : AVC
Format/Info                 : Advanced Video Codec
Format profile              : High@L3.1
Format settings, CABAC      : Yes
Format settings, RefFrames  : 4 frames
Format settings, GOP        : M=4, N=48
Codec ID                    : V_MPEG4/ISO/AVC
Duration                    : 2 h 2 min
Bit rate mode               : Constant
Bit rate                    : 6 000 kb/s
Width                       : 1 280 pixels
Height                      : 544 pixels
Display aspect ratio        : 2.35:1
Frame rate mode             : Constant
Frame rate                  : 24.000 FPS
Color space                 : YUV
Chroma subsampling          : 4:2:0
Bit depth                   : 8 bits
Scan type                   : Progressive
Bits/(Pixel*Frame)          : 0.359
Stream size                 : 5.04 GiB (98%)
Default                     : Yes
Forced                      : No
Color range                 : Limited
Color primaries             : BT.709
Transfer characteristics    : BT.709
Matrix coefficients         : BT.709

Audio
ID                          : 2
Format                      : AAC
Format/Info                 : Advanced Audio Codec
Format profile              : LC
Codec ID                    : A_AAC
Duration                    : 2 h 2 min
Bit rate                    : 125 kb/s
Channel(s)                  : 2 channels
Channel positions           : Front: L R
Sampling rate               : 48.0 kHz
Frame rate                  : 46.875 FPS (1024 SPF)
Compression mode            : Lossy
Stream size                 : 110 MiB (2%)
Title                       : Telugu
Language                    : Telugu
Default                     : No
Forced                      : No

Text
ID                          : 3
Format                      : UTF-8
Codec ID                    : S_TEXT/UTF8
Codec ID/Info               : UTF-8 Plain Text
Duration                    : 1 h 59 min
Bit rate                    : 53 b/s
Count of elements           : 1579
Stream size                 : 46.6 KiB (0%)
Title                       : English [SDH]
Language                    : English
Default                     : No
Forced                      : No


Ye Mantram Vesave (2018) Telugu - 720p - WEB-DL - AVC - AAC - ESub-TMVYe Mantram Vesave (2018) Telugu - 720p - WEB-DL - AVC - AAC - ESub-TMVYe Mantram Vesave (2018) Telugu - 720p - WEB-DL - AVC - AAC - ESub-TMVYe Mantram Vesave (2018) Telugu - 720p - WEB-DL - AVC - AAC - ESub-TMVYe Mantram Vesave (2018) Telugu - 720p - WEB-DL - AVC - AAC - ESub-TMVYe Mantram Vesave (2018) Telugu - 720p - WEB-DL - AVC - AAC - ESub-TMV


SINGLE DIRECT FAST LINKS

https://www.heroupload.us/f4d0b1ed085f7bcf/Ye.Mantram.Vesave.2018.Telugu.WEB-DL.720p.UNTOUCHED.AVC.AAC.ESub-TMV.mkv


1GB LINKS



https://www.heroupload.us/a9feea498c0677d7/Ye.Mantram.Vesave.2018.Telugu.WEB-DL.720p.UNTOUCHED.AVC.AAC.ESub-TMV.part1.rar
https://www.heroupload.us/8b55fe681bb054d5/Ye.Mantram.Vesave.2018.Telugu.WEB-DL.720p.UNTOUCHED.AVC.AAC.ESub-TMV.part2.rar
https://www.heroupload.us/134c4dad11440944/Ye.Mantram.Vesave.2018.Telugu.WEB-DL.720p.UNTOUCHED.AVC.AAC.ESub-TMV.part3.rar
https://www.heroupload.us/b24af724e0b52ba8/Ye.Mantram.Vesave.2018.Telugu.WEB-DL.720p.UNTOUCHED.AVC.AAC.ESub-TMV.part4.rar
https://www.heroupload.us/3746769861044f98/Ye.Mantram.Vesave.2018.Telugu.WEB-DL.720p.UNTOUCHED.AVC.AAC.ESub-TMV.part5.rar
https://www.heroupload.us/e58bd0f034b6cb1f/Ye.Mantram.Vesave.2018.Telugu.WEB-DL.720p.UNTOUCHED.AVC.AAC.ESub-TMV.part6.rar



https://filefloater.com/Vky/Ye.Mantram.Vesave.2018.Telugu.WEB-DL.720p.UNTOUCHED.AVC.AAC.ESub-TMV.part1.rar
https://filefloater.com/Vkz/Ye.Mantram.Vesave.2018.Telugu.WEB-DL.720p.UNTOUCHED.AVC.AAC.ESub-TMV.part2.rar
https://filefloater.com/1Lmo/Ye.Mantram.Vesave.2018.Telugu.WEB-DL.720p.UNTOUCHED.AVC.AAC.ESub-TMV.part3.rar
https://filefloater.com/1Lmp/Ye.Mantram.Vesave.2018.Telugu.WEB-DL.720p.UNTOUCHED.AVC.AAC.ESub-TMV.part4.rar
https://filefloater.com/1Lmq/Ye.Mantram.Vesave.2018.Telugu.WEB-DL.720p.UNTOUCHED.AVC.AAC.ESub-TMV.part5.rar
https://filefloater.com/1Lmr/Ye.Mantram.Vesave.2018.Telugu.WEB-DL.720p.UNTOUCHED.AVC.AAC.ESub-TMV.part6.rar


Buy Premium From My Links & Support Me

Теги: Ye

Dear visitor, you are browsing our website as Guest.
We strongly recommend you to register and login to view hidden contents.

Comments:

Add Comments