Set as default Homepage|Bookmark
 
 
» » Babu Baga Busy (2017) Telugu - 1080p - WEB-HD - AVC - AAC - Esubs-TMV
Advertise

Babu Baga Busy (2017) Telugu - 1080p - WEB-HD - AVC - AAC - Esubs-TMV

Author: wroser on 4-12-2018, 18:01
Babu Baga Busy (2017) Telugu - 1080p - WEB-HD - AVC - AAC - Esubs-TMV





Format                      : MPEG-4
Format profile              : Base Media
Codec ID                    : isom (isom/iso2/avc1/mp41)
File size                   : 2.41 GiB
Duration                    : 2 h 1 min
Overall bit rate            : 2 848 kb/s
Writing application         : Lavf58.20.100

Video
ID                          : 1
Format                      : AVC
Format/Info                 : Advanced Video Codec
Format profile              : High@L4
Format settings, CABAC      : Yes
Format settings, RefFrames  : 4 frames
Codec ID                    : avc1
Codec ID/Info               : Advanced Video Coding
Duration                    : 2 h 1 min
Bit rate                    : 2 729 kb/s
Width                       : 1 920 pixels
Height                      : 816 pixels
Display aspect ratio        : 2.35:1
Frame rate mode             : Constant
Frame rate                  : 25.000 FPS
Color space                 : YUV
Chroma subsampling          : 4:2:0
Bit depth                   : 8 bits
Scan type                   : Progressive
Bits/(Pixel*Frame)          : 0.070
Stream size                 : 2.30 GiB (95%)
Writing library             : x264 core 148 r2643 5c65704
Encoding settings           : cabac=1 / ref=1 / deblock=1:0:0 / analyse=0x3:0x3 / me=dia / subme=1 / psy=1 / psy_rd=1.00:0.00 / mixed_ref=0 / me_range=16 / chroma_me=1 / trellis=0 / 8x8dct=1 / cqm=0 / deadzone=21,11 / fast_pskip=1 / chroma_qp_offset=0 / threads=12 / lookahead_threads=2 / sliced_threads=0 / nr=0 / decimate=1 / interlaced=0 / bluray_compat=0 / constrained_intra=0 / bframes=3 / b_pyramid=2 / b_adapt=1 / b_bias=0 / direct=1 / weightb=1 / open_gop=0 / weightp=1 / keyint=250 / keyint_min=25 / scenecut=40 / intra_refresh=0 / rc=abr / mbtree=0 / bitrate=2729 / ratetol=1.0 / qcomp=0.60 / qpmin=0 / qpmax=69 / qpstep=4 / ip_ratio=1.40 / pb_ratio=1.30 / aq=1:1.00
Language                    : Telugu

Audio
ID                          : 2
Format                      : AAC
Format/Info                 : Advanced Audio Codec
Format profile              : LC
Codec ID                    : 40
Duration                    : 2 h 1 min
Bit rate mode               : Constant
Bit rate                    : 125 kb/s
Channel(s)                  : 2 channels
Channel positions           : Front: L R
Sampling rate               : 48.0 kHz
Frame rate                  : 46.875 FPS (1024 SPF)
Compression mode            : Lossy
Stream size                 : 109 MiB (4%)
Language                    : Telugu
Default                     : Yes
Alternate group             : 1


Babu Baga Busy (2017) Telugu - 1080p - WEB-HD - AVC - AAC - Esubs-TMVBabu Baga Busy (2017) Telugu - 1080p - WEB-HD - AVC - AAC - Esubs-TMVBabu Baga Busy (2017) Telugu - 1080p - WEB-HD - AVC - AAC - Esubs-TMVBabu Baga Busy (2017) Telugu - 1080p - WEB-HD - AVC - AAC - Esubs-TMVBabu Baga Busy (2017) Telugu - 1080p - WEB-HD - AVC - AAC - Esubs-TMVBabu Baga Busy (2017) Telugu - 1080p - WEB-HD - AVC - AAC - Esubs-TMV
SINGLE DIRECT FAST LINKS
https://www.heroupload.us/1018f75a126c060e/Babu.Baga.Busy.2017.Telugu.WEB-HD.1080p.AVC.AAC.ESub-TMV.mp4


https://filefloater.com/1Llv/Babu.Baga.Busy.2017.Telugu.WEB-HD.1080p.AVC.AAC.ESub-TMV.mp4

700MB LINKS

https://www.heroupload.us/6098d5f3d97bfa08/Babu.Baga.Busy.2017.Telugu.WEB-HD.1080p.AVC.AAC.ESub-TMV.part1.rar
https://www.heroupload.us/a0a3b34643a1116e/Babu.Baga.Busy.2017.Telugu.WEB-HD.1080p.AVC.AAC.ESub-TMV.part2.rar
https://www.heroupload.us/2b94d6b7b0a9fd56/Babu.Baga.Busy.2017.Telugu.WEB-HD.1080p.AVC.AAC.ESub-TMV.part3.rar
https://www.heroupload.us/cd7d7bcced89aaf4/Babu.Baga.Busy.2017.Telugu.WEB-HD.1080p.AVC.AAC.ESub-TMV.part4.rar
https://www.heroupload.us/306ade7987fe96c3/Babu.Baga.Busy.2017.Telugu.WEB-HD.1080p.AVC.AAC.ESub-TMV.srt



https://filefloater.com/1Llw/Babu.Baga.Busy.2017.Telugu.WEB-HD.1080p.AVC.AAC.ESub-TMV.part1.rar
https://filefloater.com/1Llx/Babu.Baga.Busy.2017.Telugu.WEB-HD.1080p.AVC.AAC.ESub-TMV.part2.rar
https://filefloater.com/1Lly/Babu.Baga.Busy.2017.Telugu.WEB-HD.1080p.AVC.AAC.ESub-TMV.part3.rar
https://filefloater.com/1lkF/Babu.Baga.Busy.2017.Telugu.WEB-HD.1080p.AVC.AAC.ESub-TMV.part4.rar
https://filefloater.com/1LlA/Babu.Baga.Busy.2017.Telugu.WEB-HD.1080p.AVC.AAC.ESub-TMV.srt


Buy Premium From My Links & Support Me

Теги: Babu

Dear visitor, you are browsing our website as Guest.
We strongly recommend you to register and login to view hidden contents.

Comments:

Add Comments