Set as default Homepage|Bookmark
 
 
» » 96 (2018) Proper - Tamil - 1080p - WEB-HD - AVC - DD5.1 - ESubs-MTR
Advertise

96 (2018) Proper - Tamil - 1080p - WEB-HD - AVC - DD5.1 - ESubs-MTR

Author: wroser on 8-11-2018, 23:25
96 (2018) Proper - Tamil - 1080p - WEB-HD - AVC - DD5.1 - ESubs-MTR





Format                      : MPEG-TS
File size                   : 9.73 GiB
Duration                    : 2 h 31 min
Overall bit rate mode       : Variable
Overall bit rate            : 9 183 kb/s
FileExtension_Invalid       : ts m2t m2s m4t m4s tmf ts tp trp ty

Video
ID                          : 481 (0x1E1)
Menu ID                     : 1 (0x1)
Format                      : AVC
Format/Info                 : Advanced Video Codec
Format profile              : High@L4
Format settings, CABAC      : Yes
Format settings, RefFrames  : 3 frames
Codec ID                    : 27
Duration                    : 2 h 31 min
Bit rate mode               : Constant
Bit rate                    : 8 500 kb/s
Maximum bit rate            : 8 970 kb/s
Width                       : 1 920 pixels
Height                      : 1 080 pixels
Display aspect ratio        : 16:9
Frame rate                  : 29.970 (30000/1001) FPS
Standard                    : PAL
Color space                 : YUV
Chroma subsampling          : 4:2:0
Bit depth                   : 8 bits
Scan type                   : Progressive
Bits/(Pixel*Frame)          : 0.137
Stream size                 : 8.77 GiB (90%)
Color range                 : Limited
Color primaries             : BT.709
Transfer characteristics    : BT.709
Matrix coefficients         : BT.709

Audio
ID                          : 482 (0x1E2)
Menu ID                     : 1 (0x1)
Format                      : AC-3
Format/Info                 : Audio Coding 3
Format settings, Endianness : Big
Codec ID                    : 129
Duration                    : 2 h 31 min
Bit rate mode               : Constant
Bit rate                    : 448 kb/s
Maximum bit rate            : 616 kb/s
Channel(s)                  : 6 channels
Channel positions           : Front: L C R, Side: L R, LFE
Sampling rate               : 48.0 kHz
Frame rate                  : 31.250 FPS (1536 SPF)
Bit depth                   : 16 bits
Compression mode            : Lossy
Stream size                 : 486 MiB (5%)
Service kind                : Complete Main

Menu
ID                          : 480 (0x1E0)
Menu ID                     : 1 (0x1)
Duration                    : 2 h 31 min
List                        : 481 (0x1E1) (AVC) / 482 (0x1E2) (AC-3)
Maximum bit rate            : 9586400



96 (2018) Proper - Tamil - 1080p - WEB-HD - AVC - DD5.1 - ESubs-MTR96 (2018) Proper - Tamil - 1080p - WEB-HD - AVC - DD5.1 - ESubs-MTR96 (2018) Proper - Tamil - 1080p - WEB-HD - AVC - DD5.1 - ESubs-MTR96 (2018) Proper - Tamil - 1080p - WEB-HD - AVC - DD5.1 - ESubs-MTR96 (2018) Proper - Tamil - 1080p - WEB-HD - AVC - DD5.1 - ESubs-MTR96 (2018) Proper - Tamil - 1080p - WEB-HD - AVC - DD5.1 - ESubs-MTR96 (2018) Proper - Tamil - 1080p - WEB-HD - AVC - DD5.1 - ESubs-MTR96 (2018) Proper - Tamil - 1080p - WEB-HD - AVC - DD5.1 - ESubs-MTR

SINGLE DIRECT FAST LINKS

http://www.heroupload.us/f4aad67624bf9e68/96.2018.1080p.v3.HD.AVC.MP4.DD_5.1.ESubs.Tamil-MTR.mp4


1GB LINKS

http://www.heroupload.us/c849dc567d4cabed/96.2018.1080p.v3.HD.AVC.MP4.DD_5.1.ESubs.Tamil-MTR.part01.rar
http://www.heroupload.us/66d1cb2c2069beaf/96.2018.1080p.v3.HD.AVC.MP4.DD_5.1.ESubs.Tamil-MTR.part02.rar
http://www.heroupload.us/9c4f8b70b978bbb4/96.2018.1080p.v3.HD.AVC.MP4.DD_5.1.ESubs.Tamil-MTR.part03.rar
http://www.heroupload.us/8c670ed7fd045435/96.2018.1080p.v3.HD.AVC.MP4.DD_5.1.ESubs.Tamil-MTR.part04.rar
http://www.heroupload.us/11a5af14c03fbff0/96.2018.1080p.v3.HD.AVC.MP4.DD_5.1.ESubs.Tamil-MTR.part05.rar
http://www.heroupload.us/805de07dfb41b6fb/96.2018.1080p.v3.HD.AVC.MP4.DD_5.1.ESubs.Tamil-MTR.part06.rar
http://www.heroupload.us/3d68d47f65bc68f3/96.2018.1080p.v3.HD.AVC.MP4.DD_5.1.ESubs.Tamil-MTR.part07.rar
http://www.heroupload.us/662a001ec2cbe931/96.2018.1080p.v3.HD.AVC.MP4.DD_5.1.ESubs.Tamil-MTR.part08.rar
http://www.heroupload.us/69c9ef45460f5e4a/96.2018.1080p.v3.HD.AVC.MP4.DD_5.1.ESubs.Tamil-MTR.part09.rar
http://www.heroupload.us/b0792b7f411abb9a/96.2018.1080p.v3.HD.AVC.MP4.DD_5.1.ESubs.Tamil-MTR.part10.rar
http://www.heroupload.us/44b870844daaf6b0/96.2018.1080p.v3.HD.AVC.MP4.DD_5.1.ESubs.Tamil-MTR.srt



http://filefloater.com/V8w/96.2018.1080p.v3.HD.AVC.MP4.DD_5.1.ESubs.Tamil-MTR.part01.rar
http://filefloater.com/V8x/96.2018.1080p.v3.HD.AVC.MP4.DD_5.1.ESubs.Tamil-MTR.part02.rar
http://filefloater.com/V8y/96.2018.1080p.v3.HD.AVC.MP4.DD_5.1.ESubs.Tamil-MTR.part03.rar
http://filefloater.com/V8z/96.2018.1080p.v3.HD.AVC.MP4.DD_5.1.ESubs.Tamil-MTR.part04.rar
http://filefloater.com/1Lao/96.2018.1080p.v3.HD.AVC.MP4.DD_5.1.ESubs.Tamil-MTR.part05.rar
http://filefloater.com/1Lap/96.2018.1080p.v3.HD.AVC.MP4.DD_5.1.ESubs.Tamil-MTR.part06.rar
http://filefloater.com/1Laq/96.2018.1080p.v3.HD.AVC.MP4.DD_5.1.ESubs.Tamil-MTR.part07.rar
http://filefloater.com/1l9x/96.2018.1080p.v3.HD.AVC.MP4.DD_5.1.ESubs.Tamil-MTR.part08.rar
http://filefloater.com/1l9y/96.2018.1080p.v3.HD.AVC.MP4.DD_5.1.ESubs.Tamil-MTR.part09.rar
http://filefloater.com/1l9z/96.2018.1080p.v3.HD.AVC.MP4.DD_5.1.ESubs.Tamil-MTR.part10.rar
http://filefloater.com/1l9A/96.2018.1080p.v3.HD.AVC.MP4.DD_5.1.ESubs.Tamil-MTR.srt


Buy Premium From My Links & Support Me

Теги: 96

Dear visitor, you are browsing our website as Guest.
We strongly recommend you to register and login to view hidden contents.

Comments:

Add Comments