Set as default Homepage|Bookmark
 
 
» » Genius (2018) 1080p - WEB-HD - AVC - AAC-DUS Exclusive
Advertise

Genius (2018) 1080p - WEB-HD - AVC - AAC-DUS Exclusive

Author: wroser on 6-11-2018, 16:57
Genius (2018) 1080p - WEB-HD - AVC - AAC-DUS Exclusive





Format                                   : MPEG-4
Format profile                           : Base Media
Codec ID                                 : isom (isom/iso2/avc1/mp41)
File size                                : 3.10 GiB
Duration                                 : 2 h 25 min
Overall bit rate                         : 3 046 kb/s
Writing application                      : Lavf58.17.101

Video
ID                                       : 1
Format                                   : AVC
Format/Info                              : Advanced Video Codec
Format profile                           : High@L4
Format settings                          : CABAC / 4 Ref Frames
Format settings, CABAC                   : Yes
Format settings, RefFrames               : 4 frames
Codec ID                                 : avc1
Codec ID/Info                            : Advanced Video Coding
Duration                                 : 2 h 25 min
Bit rate                                 : 3 000 kb/s
Width                                    : 1 920 pixels
Height                                   : 1 080 pixels
Display aspect ratio                     : 16:9
Frame rate mode                          : Constant
Frame rate                               : 25.000 FPS
Color space                              : YUV
Chroma subsampling                       : 4:2:0
Bit depth                                : 8 bits
Scan type                                : Progressive
Bits/(Pixel*Frame)                       : 0.058
Stream size                              : 3.02 GiB (98%)
Writing library                          : x264 core 152 r2854 e9a5903

Audio
ID                                       : 2
Format                                   : AAC
Format/Info                              : Advanced Audio Codec
Format profile                           : LC
Codec ID                                 : mp4a-40-2
Duration                                 : 2 h 25 min
Bit rate mode                            : Constant
Bit rate                                 : 64.3 kb/s
Channel(s)                               : 2 channels
Channel positions                        : Front: L R
Sampling rate                            : 48.0 kHz
Frame rate                               : 46.875 FPS (1024 SPF)
Compression mode                         : Lossy
Stream size                              : 66.9 MiB (2%)
Default                                  : Yes
Alternate group                          : 1


Genius (2018) 1080p - WEB-HD - AVC - AAC-DUS ExclusiveGenius (2018) 1080p - WEB-HD - AVC - AAC-DUS ExclusiveGenius (2018) 1080p - WEB-HD - AVC - AAC-DUS ExclusiveGenius (2018) 1080p - WEB-HD - AVC - AAC-DUS ExclusiveGenius (2018) 1080p - WEB-HD - AVC - AAC-DUS Exclusive

SINGLE DIRECT FAST LINKS
http://www.heroupload.us/da9582cfcdc7ac02/Genius.2018.1080p.WEBHD.Untouched-DUS.mp4


http://filefloater.com/V77/Genius.2018.1080p.WEBHD.Untouched-DUS.mp4

1GB LINKS

http://www.heroupload.us/fac8c991997261e7/Genius.2018.1080p.WEBHD.Untouched-DUS.part1.rar
http://www.heroupload.us/749bb7be2b8c27cd/Genius.2018.1080p.WEBHD.Untouched-DUS.part2.rar
http://www.heroupload.us/f7fe668d503e3f83/Genius.2018.1080p.WEBHD.Untouched-DUS.part3.rar
http://www.heroupload.us/e9d5e30a31ff50b0/Genius.2018.1080p.WEBHD.Untouched-DUS.part4.rar



http://filefloater.com/V78/Genius.2018.1080p.WEBHD.Untouched-DUS.part1.rar
http://filefloater.com/V79/Genius.2018.1080p.WEBHD.Untouched-DUS.part2.rar
http://filefloater.com/V7a/Genius.2018.1080p.WEBHD.Untouched-DUS.part3.rar
http://filefloater.com/V7b/Genius.2018.1080p.WEBHD.Untouched-DUS.part4.rar


Buy Premium From My Links & Support Me

Теги: Genius

Dear visitor, you are browsing our website as Guest.
We strongly recommend you to register and login to view hidden contents.

Comments:

Add Comments