Set as default Homepage|Bookmark
 
 
» » Hero No Zero 3 - Maan Karate (2018) 1080p - WEB-HD - AVC - AAC-GM Exclusive
Advertise

Hero No Zero 3 - Maan Karate (2018) 1080p - WEB-HD - AVC - AAC-GM Exclusive

Author: wroser on 3-11-2018, 22:16
Hero No Zero 3 - Maan Karate (2018) 1080p - WEB-HD - AVC - AAC-GM Exclusive





Format                      : MPEG-4
Format profile              : Base Media
Codec ID                    : isom (isom/iso2/avc1/mp41)
File size                   : 1.31 GiB
Duration                    : 2 h 0 min
Overall bit rate            : 1 549 kb/s
Writing application         : Lavf58.9.100

Video
ID                          : 1
Format                      : AVC
Format/Info                 : Advanced Video Codec
Format profile              : High@L4
Format settings, CABAC      : Yes
Format settings, RefFrames  : 3 frames
Codec ID                    : avc1
Codec ID/Info               : Advanced Video Coding
Duration                    : 2 h 0 min
Bit rate                    : 1 415 kb/s
Width                       : 1 920 pixels
Height                      : 1 080 pixels
Display aspect ratio        : 16:9
Frame rate mode             : Constant
Frame rate                  : 25.000 FPS
Color space                 : YUV
Chroma subsampling          : 4:2:0
Bit depth                   : 8 bits
Scan type                   : Progressive
Bits/(Pixel*Frame)          : 0.027
Stream size                 : 1.19 GiB (91%)
Color range                 : Limited
Color primaries             : BT.709
Transfer characteristics    : BT.709
Matrix coefficients         : BT.709

Audio
ID                          : 2
Format                      : AAC
Format/Info                 : Advanced Audio Codec
Format profile              : LC
Codec ID                    : 40
Duration                    : 2 h 0 min
Bit rate mode               : Constant
Bit rate                    : 128 kb/s
Channel(s)                  : 2 channels
Channel positions           : Front: L R
Sampling rate               : 44.1 kHz
Frame rate                  : 43.066 FPS (1024 SPF)
Compression mode            : Lossy
Stream size                 : 111 MiB (8%)
Language                    : English
Default                     : Yes
Alternate group             : 1




Hero No Zero 3 - Maan Karate (2018) 1080p - WEB-HD - AVC - AAC-GM Exclusive


SINGLE DIRECT FAST LINKS
http://www.heroupload.us/1c84beb087010e2d/Hero.No.Zero.3.Maan.Karate.2018.1080p.WEB-HD.AVC.AAC-GM.mp4


http://filefloater.com/V6o/Hero.No.Zero.3.Maan.Karate.2018.1080p.WEB-HD.AVC.AAC-GM.mp4




Buy Premium From My Links & Support Me

Теги: Hero

Dear visitor, you are browsing our website as Guest.
We strongly recommend you to register and login to view hidden contents.

Comments:

Add Comments