Set as default Homepage|Bookmark
 
 
» » Seema Raja (2018) Tamil - 1080p - WEB-HDRip - x264 - DD5.1 - MTR
Advertise

Seema Raja (2018) Tamil - 1080p - WEB-HDRip - x264 - DD5.1 - MTR

Author: wroser on 31-10-2018, 21:10
Seema Raja (2018) Tamil - 1080p - WEB-HDRip - x264 - DD5.1 - MTR





Format                      : Matroska
Format version              : Version 4 / Version 2
File size                   : 5.06 GiB
Duration                    : 2 h 36 min
Overall bit rate            : 4 629 kb/s
Encoded date                : UTC 2018-10-31 11:08:13
Writing application         : mkvmerge v17.0.0 ('Be Ur Friend') 64-bit
Writing library             : libebml v1.3.5 + libmatroska v1.4.8

Video
ID                          : 1
Format                      : AVC
Format/Info                 : Advanced Video Codec
Format profile              : High@L5.1
Format settings, CABAC      : Yes
Format settings, RefFrames  : 4 frames
Codec ID                    : V_MPEG4/ISO/AVC
Duration                    : 2 h 36 min
Bit rate                    : 4 435 kb/s
Width                       : 1 920 pixels
Height                      : 1 080 pixels
Display aspect ratio        : 16:9
Frame rate mode             : Constant
Frame rate                  : 23.976 (24000/1001) FPS
Color space                 : YUV
Chroma subsampling          : 4:2:0
Bit depth                   : 8 bits
Scan type                   : Progressive
Bits/(Pixel*Frame)          : 0.089
Stream size                 : 4.88 GiB (96%)
Writing library             : x264 core 148 r2744 b97ae06
Encoding settings           : cabac=1 / ref=2 / deblock=1:0:0 / analyse=0x3:0x113 / me=hex / subme=6 / psy=1 / psy_rd=1.00:0.00 / mixed_ref=1 / me_range=16 / chroma_me=1 / trellis=1 / 8x8dct=1 / cqm=0 / deadzone=21,11 / fast_pskip=1 / chroma_qp_offset=-2 / threads=34 / lookahead_threads=5 / sliced_threads=0 / nr=0 / decimate=1 / interlaced=0 / bluray_compat=0 / constrained_intra=0 / bframes=3 / b_pyramid=2 / b_adapt=1 / b_bias=0 / direct=1 / weightb=1 / open_gop=0 / weightp=1 / keyint=240 / keyint_min=23 / scenecut=40 / intra_refresh=0 / rc_lookahead=30 / rc=abr / mbtree=1 / bitrate=4435 / ratetol=1.0 / qcomp=0.60 / qpmin=0 / qpmax=69 / qpstep=4 / vbv_maxrate=300000 / vbv_bufsize=300000 / nal_hrd=none / filler=0 / ip_ratio=1.40 / aq=1:1.00
Language                    : Tamil
Default                     : Yes
Forced                      : No

Audio
ID                          : 2
Format                      : AC-3
Format/Info                 : Audio Coding 3
Format settings, Endianness : Big
Codec ID                    : A_AC3
Duration                    : 2 h 36 min
Bit rate mode               : Constant
Bit rate                    : 160 kb/s
Channel(s)                  : 6 channels
Channel positions           : Front: L C R, Side: L R, LFE
Sampling rate               : 44.1 kHz
Frame rate                  : 28.711 FPS (1536 SPF)
Bit depth                   : 16 bits
Compression mode            : Lossy
Stream size                 : 179 MiB (3%)
Language                    : Tamil
Service kind                : Complete Main
Default                     : Yes
Forced                      : No



Seema Raja (2018) Tamil - 1080p - WEB-HDRip - x264 - DD5.1 - MTRSeema Raja (2018) Tamil - 1080p - WEB-HDRip - x264 - DD5.1 - MTRSeema Raja (2018) Tamil - 1080p - WEB-HDRip - x264 - DD5.1 - MTRSeema Raja (2018) Tamil - 1080p - WEB-HDRip - x264 - DD5.1 - MTRSeema Raja (2018) Tamil - 1080p - WEB-HDRip - x264 - DD5.1 - MTRSeema Raja (2018) Tamil - 1080p - WEB-HDRip - x264 - DD5.1 - MTRSeema Raja (2018) Tamil - 1080p - WEB-HDRip - x264 - DD5.1 - MTRSeema Raja (2018) Tamil - 1080p - WEB-HDRip - x264 - DD5.1 - MTR

SINGLE DIRECT FAST LINKS

http://www.heroupload.us/5dd52a502342e054/Seema.Raja.2018.Tamil.Proper.1080p.HQ.HD.AVC.x264.5.1-MTR.mkv


1GB LINKS


http://www.heroupload.us/0bc5630791a2b4c0/Seema.Raja.2018.Tamil.Proper.1080p.HQ.HD.AVC.x264.5.1-MTR.part1.rar
http://www.heroupload.us/05c57a3204919c6c/Seema.Raja.2018.Tamil.Proper.1080p.HQ.HD.AVC.x264.5.1-MTR.part2.rar
http://www.heroupload.us/ed0dc9c0760d9f8b/Seema.Raja.2018.Tamil.Proper.1080p.HQ.HD.AVC.x264.5.1-MTR.part3.rar
http://www.heroupload.us/fcb2e41ed9f8d803/Seema.Raja.2018.Tamil.Proper.1080p.HQ.HD.AVC.x264.5.1-MTR.part4.rar
http://www.heroupload.us/317cb96b7956706b/Seema.Raja.2018.Tamil.Proper.1080p.HQ.HD.AVC.x264.5.1-MTR.part5.rar
http://www.heroupload.us/d5d5390b811eb18d/Seema.Raja.2018.Tamil.Proper.1080p.HQ.HD.AVC.x264.5.1-MTR.part6.rar



http://filefloater.com/1L7o/Seema.Raja.2018.Tamil.Proper.1080p.HQ.HD.AVC.x264.5.1-MTR.part1.rar
http://filefloater.com/1L7p/Seema.Raja.2018.Tamil.Proper.1080p.HQ.HD.AVC.x264.5.1-MTR.part2.rar
http://filefloater.com/1L7q/Seema.Raja.2018.Tamil.Proper.1080p.HQ.HD.AVC.x264.5.1-MTR.part3.rar
http://filefloater.com/1L7r/Seema.Raja.2018.Tamil.Proper.1080p.HQ.HD.AVC.x264.5.1-MTR.part4.rar
http://filefloater.com/1L7s/Seema.Raja.2018.Tamil.Proper.1080p.HQ.HD.AVC.x264.5.1-MTR.part5.rar
http://filefloater.com/1L7t/Seema.Raja.2018.Tamil.Proper.1080p.HQ.HD.AVC.x264.5.1-MTR.part6.rar


Buy Premium From My Links & Support Me

Теги: Seema

Dear visitor, you are browsing our website as Guest.
We strongly recommend you to register and login to view hidden contents.

Comments:

Add Comments