Set as default Homepage|Bookmark
 
 
» » Saamy Square (2018) Tamil - 1080p - WEB-HD - AVC - DD5.1 - ESubs-MTR
Advertise

Saamy Square (2018) Tamil - 1080p - WEB-HD - AVC - DD5.1 - ESubs-MTR

Author: wroser on 27-10-2018, 21:44
Saamy Square (2018) Tamil - 1080p - WEB-HD - AVC - DD5.1 - ESubs-MTR





File size                   : 9.56 GiB
Duration                    : 2 h 29 min
Overall bit rate mode       : Variable
Overall bit rate            : 9 183 kb/s
FileExtension_Invalid       : ts m2t m2s m4t m4s tmf ts tp trp ty

Video
ID                          : 481 (0x1E1)
Menu ID                     : 1 (0x1)
Format                      : AVC
Format/Info                 : Advanced Video Codec
Format profile              : High@L4
Format settings, CABAC      : Yes
Format settings, RefFrames  : 3 frames
Codec ID                    : 27
Duration                    : 2 h 29 min
Bit rate mode               : Constant
Bit rate                    : 8 500 kb/s
Maximum bit rate            : 8 970 kb/s
Width                       : 1 920 pixels
Height                      : 1 080 pixels
Display aspect ratio        : 16:9
Frame rate                  : 29.970 (30000/1001) FPS
Standard                    : PAL
Color space                 : YUV
Chroma subsampling          : 4:2:0
Bit depth                   : 8 bits
Scan type                   : Progressive
Bits/(Pixel*Frame)          : 0.137
Stream size                 : 8.62 GiB (90%)
Color range                 : Limited
Color primaries             : BT.709
Transfer characteristics    : BT.709
Matrix coefficients         : BT.709

Audio
ID                          : 482 (0x1E2)
Menu ID                     : 1 (0x1)
Format                      : AC-3
Format/Info                 : Audio Coding 3
Format settings, Endianness : Big
Codec ID                    : 129
Duration                    : 2 h 29 min
Bit rate mode               : Constant
Bit rate                    : 448 kb/s
Maximum bit rate            : 616 kb/s
Channel(s)                  : 6 channels
Channel positions           : Front: L C R, Side: L R, LFE
Sampling rate               : 48.0 kHz
Frame rate                  : 31.250 FPS (1536 SPF)
Bit depth                   : 16 bits
Compression mode            : Lossy
Stream size                 : 478 MiB (5%)
Service kind                : Complete Main

Menu
ID                          : 480 (0x1E0)
Menu ID                     : 1 (0x1)
Duration                    : 2 h 29 min
List                        : 481 (0x1E1) (AVC) / 482 (0x1E2) (AC-3)
Maximum bit rate            : 9586400



Saamy Square (2018) Tamil - 1080p - WEB-HD - AVC - DD5.1 - ESubs-MTRSaamy Square (2018) Tamil - 1080p - WEB-HD - AVC - DD5.1 - ESubs-MTRSaamy Square (2018) Tamil - 1080p - WEB-HD - AVC - DD5.1 - ESubs-MTRSaamy Square (2018) Tamil - 1080p - WEB-HD - AVC - DD5.1 - ESubs-MTR


SINGLE DIRECT FAST LINKS

http://www.heroupload.us/c98855088892b681/Saamy.Square.2018.1080p.v3.HD.AVC.MP4.DD.5.1.ESubs.Tamil-MTR.mp4


1GB LINKS

http://www.heroupload.us/8db03ac9ab5ee1d2/Saamy.Square.2018.1080p.v3.HD.AVC.MP4.DD.5.1.ESubs.Tamil-MTR.part01.rar
http://www.heroupload.us/b4c334c2948222d3/Saamy.Square.2018.1080p.v3.HD.AVC.MP4.DD.5.1.ESubs.Tamil-MTR.part02.rar
http://www.heroupload.us/c27f134bc8668bc9/Saamy.Square.2018.1080p.v3.HD.AVC.MP4.DD.5.1.ESubs.Tamil-MTR.part03.rar
http://www.heroupload.us/1a351c1ce50eb3c2/Saamy.Square.2018.1080p.v3.HD.AVC.MP4.DD.5.1.ESubs.Tamil-MTR.part04.rar
http://www.heroupload.us/e6294bb4a6c5d4cf/Saamy.Square.2018.1080p.v3.HD.AVC.MP4.DD.5.1.ESubs.Tamil-MTR.part05.rar
http://www.heroupload.us/9ec5798335f3339e/Saamy.Square.2018.1080p.v3.HD.AVC.MP4.DD.5.1.ESubs.Tamil-MTR.part06.rar
http://www.heroupload.us/f10701049fc57b8e/Saamy.Square.2018.1080p.v3.HD.AVC.MP4.DD.5.1.ESubs.Tamil-MTR.part07.rar
http://www.heroupload.us/100de49c091d89ea/Saamy.Square.2018.1080p.v3.HD.AVC.MP4.DD.5.1.ESubs.Tamil-MTR.part08.rar
http://www.heroupload.us/fef87aa5d5d9ff92/Saamy.Square.2018.1080p.v3.HD.AVC.MP4.DD.5.1.ESubs.Tamil-MTR.part09.rar
http://www.heroupload.us/c768d324c2659f91/Saamy.Square.2018.1080p.v3.HD.AVC.MP4.DD.5.1.ESubs.Tamil-MTR.part10.rar
http://www.heroupload.us/e8e02a0ecbbe9bd6/Saamy.Square.2018.1080p.v3.HD.AVC.MP4.DD.5.1.ESubs.Tamil-MTR.srt



http://filefloater.com/V4a/Saamy.Square.2018.1080p.v3.HD.AVC.MP4.DD.5.1.ESubs.Tamil-MTR.part01.rar
http://filefloater.com/V4b/Saamy.Square.2018.1080p.v3.HD.AVC.MP4.DD.5.1.ESubs.Tamil-MTR.part02.rar
http://filefloater.com/V4c/Saamy.Square.2018.1080p.v3.HD.AVC.MP4.DD.5.1.ESubs.Tamil-MTR.part03.rar
http://filefloater.com/V4d/Saamy.Square.2018.1080p.v3.HD.AVC.MP4.DD.5.1.ESubs.Tamil-MTR.part04.rar
http://filefloater.com/V4e/Saamy.Square.2018.1080p.v3.HD.AVC.MP4.DD.5.1.ESubs.Tamil-MTR.part05.rar
http://filefloater.com/V4f/Saamy.Square.2018.1080p.v3.HD.AVC.MP4.DD.5.1.ESubs.Tamil-MTR.part06.rar
http://filefloater.com/V4g/Saamy.Square.2018.1080p.v3.HD.AVC.MP4.DD.5.1.ESubs.Tamil-MTR.part07.rar
http://filefloater.com/V4h/Saamy.Square.2018.1080p.v3.HD.AVC.MP4.DD.5.1.ESubs.Tamil-MTR.part08.rar
http://filefloater.com/V4i/Saamy.Square.2018.1080p.v3.HD.AVC.MP4.DD.5.1.ESubs.Tamil-MTR.part09.rar
http://filefloater.com/V4j/Saamy.Square.2018.1080p.v3.HD.AVC.MP4.DD.5.1.ESubs.Tamil-MTR.part10.rar
http://filefloater.com/V4k/Saamy.Square.2018.1080p.v3.HD.AVC.MP4.DD.5.1.ESubs.Tamil-MTR.srt


Buy Premium From My Links & Support Me

Теги: Saamy

Dear visitor, you are browsing our website as Guest.
We strongly recommend you to register and login to view hidden contents.

Comments:

Add Comments