Set as default Homepage|Bookmark
 
 
» » Pariyerum Perumal (2018) Tamil - 1080p - WEB-HD - AVC - DD5.1 - ESubs-MTR
Advertise

Pariyerum Perumal (2018) Tamil - 1080p - WEB-HD - AVC - DD5.1 - ESubs-MTR

Author: wroser on 26-10-2018, 20:36
Pariyerum Perumal (2018) Tamil - 1080p - WEB-HD - AVC - DD5.1 - ESubs-MTR





Format                      : MPEG-TS
File size                   : 9.42 GiB
Duration                    : 2 h 26 min
Overall bit rate mode       : Variable
Overall bit rate            : 9 183 kb/s
FileExtension_Invalid       : ts m2t m2s m4t m4s tmf ts tp trp ty

Video
ID                          : 481 (0x1E1)
Menu ID                     : 1 (0x1)
Format                      : AVC
Format/Info                 : Advanced Video Codec
Format profile              : High@L4
Format settings, CABAC      : Yes
Format settings, RefFrames  : 3 frames
Codec ID                    : 27
Duration                    : 2 h 26 min
Bit rate mode               : Constant
Bit rate                    : 8 500 kb/s
Maximum bit rate            : 8 970 kb/s
Width                       : 1 920 pixels
Height                      : 1 080 pixels
Display aspect ratio        : 16:9
Frame rate                  : 29.970 (30000/1001) FPS
Standard                    : PAL
Color space                 : YUV
Chroma subsampling          : 4:2:0
Bit depth                   : 8 bits
Scan type                   : Progressive
Bits/(Pixel*Frame)          : 0.137
Stream size                 : 8.49 GiB (90%)
Color range                 : Limited
Color primaries             : BT.709
Transfer characteristics    : BT.709
Matrix coefficients         : BT.709

Audio
ID                          : 482 (0x1E2)
Menu ID                     : 1 (0x1)
Format                      : AC-3
Format/Info                 : Audio Coding 3
Format settings, Endianness : Big
Codec ID                    : 129
Duration                    : 2 h 26 min
Bit rate mode               : Constant
Bit rate                    : 448 kb/s
Maximum bit rate            : 616 kb/s
Channel(s)                  : 6 channels
Channel positions           : Front: L C R, Side: L R, LFE
Sampling rate               : 48.0 kHz
Frame rate                  : 31.250 FPS (1536 SPF)
Bit depth                   : 16 bits
Compression mode            : Lossy
Stream size                 : 471 MiB (5%)
Service kind                : Complete Main

Menu
ID                          : 480 (0x1E0)
Menu ID                     : 1 (0x1)
Duration                    : 2 h 26 min
List                        : 481 (0x1E1) (AVC) / 482 (0x1E2) (AC-3)
Maximum bit rate            : 9586400




Pariyerum Perumal (2018) Tamil - 1080p - WEB-HD - AVC - DD5.1 - ESubs-MTRPariyerum Perumal (2018) Tamil - 1080p - WEB-HD - AVC - DD5.1 - ESubs-MTRPariyerum Perumal (2018) Tamil - 1080p - WEB-HD - AVC - DD5.1 - ESubs-MTRPariyerum Perumal (2018) Tamil - 1080p - WEB-HD - AVC - DD5.1 - ESubs-MTRPariyerum Perumal (2018) Tamil - 1080p - WEB-HD - AVC - DD5.1 - ESubs-MTR

SINGLE DIRECT FAST LINKS

http://www.heroupload.us/b3284363811dc4f5/Pariyerum.Perumal.2018.1080p.HD.AVC.DD5.1.ESubs.Tamil-MTR.mp4


1GB LINKS

http://www.heroupload.us/8e209a7ff8f89333/Pariyerum.Perumal.2018.1080p.HD.AVC.DD5.1.ESubs.Tamil-MTR.part01.rar
http://www.heroupload.us/1b45e73ff667623d/Pariyerum.Perumal.2018.1080p.HD.AVC.DD5.1.ESubs.Tamil-MTR.part02.rar
http://www.heroupload.us/39221ac11d555d12/Pariyerum.Perumal.2018.1080p.HD.AVC.DD5.1.ESubs.Tamil-MTR.part03.rar
http://www.heroupload.us/1115720da70e2180/Pariyerum.Perumal.2018.1080p.HD.AVC.DD5.1.ESubs.Tamil-MTR.part04.rar
http://www.heroupload.us/d1b3b22c53d3a309/Pariyerum.Perumal.2018.1080p.HD.AVC.DD5.1.ESubs.Tamil-MTR.part05.rar
http://www.heroupload.us/56c04303ae7fc105/Pariyerum.Perumal.2018.1080p.HD.AVC.DD5.1.ESubs.Tamil-MTR.part06.rar
http://www.heroupload.us/c53ae2eb2e1ae6de/Pariyerum.Perumal.2018.1080p.HD.AVC.DD5.1.ESubs.Tamil-MTR.part07.rar
http://www.heroupload.us/a0a41e442cb7b04c/Pariyerum.Perumal.2018.1080p.HD.AVC.DD5.1.ESubs.Tamil-MTR.part08.rar
http://www.heroupload.us/5a7e5ecbefb28d5d/Pariyerum.Perumal.2018.1080p.HD.AVC.DD5.1.ESubs.Tamil-MTR.part09.rar
http://www.heroupload.us/54d6ad08f8f481aa/Pariyerum.Perumal.2018.1080p.HD.AVC.DD5.1.ESubs.Tamil-MTR.part10.rar
http://www.heroupload.us/aabca4df54c64c23/Pariyerum.Perumal.2018.1080p.HD.AVC.DD5.1.ESubs.Tamil-MTR.srt



http://filefloater.com/1L4I/Pariyerum.Perumal.2018.1080p.HD.AVC.DD5.1.ESubs.Tamil-MTR.part01.rar
http://filefloater.com/1L4J/Pariyerum.Perumal.2018.1080p.HD.AVC.DD5.1.ESubs.Tamil-MTR.part02.rar
http://filefloater.com/1L4K/Pariyerum.Perumal.2018.1080p.HD.AVC.DD5.1.ESubs.Tamil-MTR.part03.rar
http://filefloater.com/1L4L/Pariyerum.Perumal.2018.1080p.HD.AVC.DD5.1.ESubs.Tamil-MTR.part04.rar
http://filefloater.com/1L4M/Pariyerum.Perumal.2018.1080p.HD.AVC.DD5.1.ESubs.Tamil-MTR.part05.rar
http://filefloater.com/1L4N/Pariyerum.Perumal.2018.1080p.HD.AVC.DD5.1.ESubs.Tamil-MTR.part06.rar
http://filefloater.com/V30/Pariyerum.Perumal.2018.1080p.HD.AVC.DD5.1.ESubs.Tamil-MTR.part07.rar
http://filefloater.com/V31/Pariyerum.Perumal.2018.1080p.HD.AVC.DD5.1.ESubs.Tamil-MTR.part08.rar
http://filefloater.com/V32/Pariyerum.Perumal.2018.1080p.HD.AVC.DD5.1.ESubs.Tamil-MTR.part09.rar
http://filefloater.com/V33/Pariyerum.Perumal.2018.1080p.HD.AVC.DD5.1.ESubs.Tamil-MTR.part10.rar
http://filefloater.com/V34/Pariyerum.Perumal.2018.1080p.HD.AVC.DD5.1.ESubs.Tamil-MTR.srt




Buy Premium From My Links & Support Me

Теги: Pariyerum

Dear visitor, you are browsing our website as Guest.
We strongly recommend you to register and login to view hidden contents.

Comments:

Add Comments