Set as default Homepage|Bookmark
 
 
» » Incredibles 2 (2018) 720p HDRip x264 [Multi Line Audios][Hindi+Telugu+Tamil+Eng]
Advertise

Incredibles 2 (2018) 720p HDRip x264 [Multi Line Audios][Hindi+Telugu+Tamil+Eng]

Author: wroser on 23-10-2018, 11:09
Incredibles 2 (2018) 720p HDRip x264 [Multi Line Audios][Hindi+Telugu+Tamil+Eng]





Format                      : Matroska
Format version              : Version 4 / Version 2
File size                   : 1.04 GiB
Duration                    : 1 h 57 min
Overall bit rate mode       : Variable
Overall bit rate            : 1 269 kb/s
Encoded date                : UTC 2018-10-22 16:14:28
Writing application         : mkvmerge v7.1.0 ('Good Love') 32bit built on Jul 27 2014 12:59:18
Writing library             : libebml v1.3.0 + libmatroska v1.4.1

Video
ID                          : 1
Format                      : AVC
Format/Info                 : Advanced Video Codec
Format profile              : High@L3.1
Format settings, CABAC      : Yes
Format settings, RefFrames  : 4 frames
Codec ID                    : V_MPEG4/ISO/AVC
Duration                    : 1 h 57 min
Bit rate                    : 816 kb/s
Width                       : 1 280 pixels
Height                      : 536 pixels
Display aspect ratio        : 2.40:1
Frame rate mode             : Constant
Frame rate                  : 23.976 (24000/1001) FPS
Color space                 : YUV
Chroma subsampling          : 4:2:0
Bit depth                   : 8 bits
Scan type                   : Progressive
Bits/(Pixel*Frame)          : 0.050
Stream size                 : 688 MiB (64%)
Writing library             : x264 core 155 r2901 7d0ff22
Encoding settings           : cabac=1 / ref=3 / deblock=1:0:0 / analyse=0x3:0x113 / me=hex / subme=7 / psy=1 / psy_rd=1.00:0.00 / mixed_ref=1 / me_range=16 / chroma_me=1 / trellis=1 / 8x8dct=1 / cqm=0 / deadzone=21,11 / fast_pskip=1 / chroma_qp_offset=-2 / threads=17 / lookahead_threads=2 / sliced_threads=0 / nr=0 / decimate=1 / interlaced=0 / bluray_compat=0 / constrained_intra=0 / bframes=3 / b_pyramid=2 / b_adapt=1 / b_bias=0 / direct=1 / weightb=1 / open_gop=0 / weightp=2 / keyint=240 / keyint_min=23 / scenecut=40 / intra_refresh=0 / rc_lookahead=40 / rc=2pass / mbtree=1 / bitrate=816 / ratetol=1.0 / qcomp=0.60 / qpmin=0 / qpmax=69 / qpstep=4 / cplxblur=20.0 / qblur=0.5 / ip_ratio=1.40 / aq=1:1.00
Language                    : English
Default                     : Yes
Forced                      : No

Audio #1
ID                          : 2
Format                      : MPEG Audio
Format version              : Version 1
Format profile              : Layer 3
Mode                        : Joint stereo
Mode extension              : MS Stereo
Codec ID                    : A_MPEG/L3
Codec ID/Hint               : MP3
Duration                    : 1 h 57 min
Bit rate mode               : Variable
Bit rate                    : 104 kb/s
Nominal bit rate            : 128 kb/s
Channel(s)                  : 2 channels
Sampling rate               : 48.0 kHz
Frame rate                  : 41.667 FPS (1152 SPF)
Compression mode            : Lossy
Stream size                 : 88.1 MiB (8%)
Writing library             : LAME3.99r
Encoding settings           : -m j -V 4 -q 3 -lowpass 17 --abr 128
Language                    : Telugu
Default                     : Yes
Forced                      : No

Audio #2
ID                          : 3
Format                      : MPEG Audio
Format version              : Version 1
Format profile              : Layer 3
Mode                        : Joint stereo
Mode extension              : MS Stereo
Codec ID                    : A_MPEG/L3
Codec ID/Hint               : MP3
Duration                    : 1 h 57 min
Bit rate mode               : Variable
Bit rate                    : 128 kb/s
Channel(s)                  : 2 channels
Sampling rate               : 48.0 kHz
Frame rate                  : 41.667 FPS (1152 SPF)
Compression mode            : Lossy
Stream size                 : 109 MiB (10%)
Writing library             : LAME3.99r
Encoding settings           : -m j -V 4 -q 3 -lowpass 17 --abr 128
Language                    : Tamil
Default                     : No
Forced                      : No

Audio #3
ID                          : 4
Format                      : MPEG Audio
Format version              : Version 1
Format profile              : Layer 3
Mode                        : Joint stereo
Mode extension              : MS Stereo
Codec ID                    : A_MPEG/L3
Codec ID/Hint               : MP3
Duration                    : 1 h 57 min
Bit rate mode               : Variable
Bit rate                    : 112 kb/s
Nominal bit rate            : 128 kb/s
Channel(s)                  : 2 channels
Sampling rate               : 48.0 kHz
Frame rate                  : 41.667 FPS (1152 SPF)
Compression mode            : Lossy
Stream size                 : 94.1 MiB (9%)
Writing library             : LAME3.99r
Encoding settings           : -m j -V 4 -q 3 -lowpass 17 --abr 128
Language                    : Hindi
Default                     : No
Forced                      : No

Audio #4
ID                          : 5
Format                      : MPEG Audio
Format version              : Version 1
Format profile              : Layer 3
Mode                        : Joint stereo
Mode extension              : MS Stereo
Codec ID                    : A_MPEG/L3
Codec ID/Hint               : MP3
Duration                    : 1 h 57 min
Bit rate mode               : Variable
Bit rate                    : 104 kb/s
Nominal bit rate            : 128 kb/s
Channel(s)                  : 2 channels
Sampling rate               : 48.0 kHz
Frame rate                  : 41.667 FPS (1152 SPF)
Compression mode            : Lossy
Stream size                 : 87.4 MiB (8%)
Writing library             : LAME3.99r
Encoding settings           : -m j -V 4 -q 3 -lowpass 17 --abr 128
Language                    : English
Default                     : No
Forced                      : No

Text
ID                          : 6
Format                      : UTF-8
Codec ID                    : S_TEXT/UTF8
Codec ID/Info               : UTF-8 Plain Text
Duration                    : 1 h 54 min
Bit rate                    : 71 b/s
Count of elements           : 2023
Stream size                 : 60.3 KiB (0%)
Language                    : English
Default                     : Yes
Forced                      : No



Incredibles 2 (2018) 720p HDRip x264 [Multi Line Audios][Hindi+Telugu+Tamil+Eng]Incredibles 2 (2018) 720p HDRip x264 [Multi Line Audios][Hindi+Telugu+Tamil+Eng]Incredibles 2 (2018) 720p HDRip x264 [Multi Line Audios][Hindi+Telugu+Tamil+Eng]Incredibles 2 (2018) 720p HDRip x264 [Multi Line Audios][Hindi+Telugu+Tamil+Eng]Incredibles 2 (2018) 720p HDRip x264 [Multi Line Audios][Hindi+Telugu+Tamil+Eng]


SINGLE DIRECT FAST LINKS

http://www.heroupload.us/9c5d148f8c7d3511/Incredibles.2.2018.Proper.HDRip.720p.Telugu+Tamil+Hindi+English.mkv
http://www.heroupload.us/38ec6ffa05d56bde/Incredibles.2.2018.Proper.HDRip.720p.Telugu+Tamil+Hindi+English.srt



http://filefloater.com/V28/Incredibles.2.2018.Proper.HDRip.720p.Telugu+Tamil+Hindi+English.mkv
http://filefloater.com/V29/Incredibles.2.2018.Proper.HDRip.720p.Telugu+Tamil+Hindi+English.srt


Buy Premium From My Links & Support Me

Теги: Incredibles

Dear visitor, you are browsing our website as Guest.
We strongly recommend you to register and login to view hidden contents.

Comments:

Add Comments
Reply
  • Group: Members
  • ICQ:
  • Registration: 26.10.2018
  • Status: Currently Offline
  • 9 Comment
  • 0 Article
^
Hair extensions are used for adding length and fullness to the hair to create different styles or simply to add more volume. They are clipped, glued or even sewed to the hair. With the growing market, you can still capture a decent share from people who are eager to buy by introducing your own line of eye-catching hair extension boxes that lure customers to pick your hair extensions right away from the shelves when they see it.

Now improve your sales and attract more customers with beautiful and captivating hair extension boxes that come in all sizes and shapes. This website is one of the best service provider in USA. Thank you!
Reply
  • muener

  • 28 October 2018 12:21
  • Group: Guests
  • ICQ:
  • Registration: --
  • Status:
  • 0 Comment
  • 0 Article
^
wow, great, I was wondering how to cure acne naturally. and found your site by google, learned a lot, now i’m a bit clear. I’ve bookmark your site and also add rss. keep us updated. How to access multiple Gmail accounts in one login?
Reply
  • Group: Guests
  • ICQ:
  • Registration: --
  • Status:
  • 0 Comment
  • 0 Article
^
Thanks for sharing nice information with us. I like your post and all you share with us is up to date and quite informative, I would like to bookmark the page so I can come here again to read you, as you have done a wonderful job. food places open near me
Reply
  • Group: Guests
  • ICQ:
  • Registration: --
  • Status:
  • 0 Comment
  • 0 Article
^
I was surfing the Internet for information and came across your blog. I am impressed by the information you have on this blog. It shows how well you understand this subject. azar gems