Set as default Homepage|Bookmark
 
 
» » Carry on Jatta 2 (2018) Punjabi - 720p - DTH-Rip - x264 - AAC-GOPISAHI
Advertise

Carry on Jatta 2 (2018) Punjabi - 720p - DTH-Rip - x264 - AAC-GOPISAHI

Author: wroser on 15-10-2018, 19:40
Carry on Jatta 2 (2018) Punjabi - 720p - DTH-Rip - x264 - AAC-GOPISAHI






Format                         : Matroska

Format version                 : Version 4 / Version 2

File size                      : 636 MiB

Duration                       : 2 h 28 min

Overall bit rate               : 597 kb/s

Movie name                     :  Carry on Jatta 2 2018 GOPISAHI


Video

Format                         : AVC

Codec ID                       : V_MPEG4/ISO/AVC

Duration                       : 2 h 28 min

Bit rate                       : 499 kb/s

Width                          : 1 080 pixels

Height                         : 564 pixels

Display aspect ratio           : 1.915

Frame rate mode                : Constant

Frame rate                     : 23.976 (24000/1001) FPS

Color space                    : YUV

Chroma subsampling             : 4:2:0

Bit depth                      : 8 bits

Scan type                      : Progressive

Bits/(Pixel*Frame)             : 0.034

Stream size                    : 531 MiB (84%)

Title                          : GOPISAHI

Writing library                : x264 core 148 r2708 86b7198

Language                       : Panjabi


Audio

Format                         : AAC

Duration                       : 2 h 28 min

Bit rate                       : 96.0 kb/s

Channel(s)                     : 2 channels

Channel positions              : Front: L R

Sampling rate                  : 44.1 kHz

Frame rate                     : 43.066 FPS (1024 SPF)

Compression mode               : Lossy

Delay relative to video        : -6 ms

Stream size                    : 103 MiB (16%)

Title                          : GOPISAHI

Language                       : English

Carry on Jatta 2 (2018) Punjabi - 720p - DTH-Rip - x264 - AAC-GOPISAHI
Carry on Jatta 2 (2018) Punjabi - 720p - DTH-Rip - x264 - AAC-GOPISAHI

SINGLE DIRECT FAST LINKS

http://www.heroupload.us/6bbf3c5304cdc5f5/Carry.on.Jatta.2.2018.720p.TVRIP.Punjabi-GOPISAHI.mkv



http://filefloater.com/2B2G/Carry.on.Jatta.2.2018.720p.TVRIP.Punjabi-GOPISAHI.mkv




Buy Premium From My Links & Support Me

Теги: Carry

Dear visitor, you are browsing our website as Guest.
We strongly recommend you to register and login to view hidden contents.

Comments:

Add Comments