Set as default Homepage|Bookmark
 
 
» » Sanju (2018) 1080p - HDTV - AVC - AAC-DUS Exclusive
Advertise

Sanju (2018) 1080p - HDTV - AVC - AAC-DUS Exclusive

Author: wroser on 14-10-2018, 15:30
Sanju (2018) 1080p - HDTV - AVC - AAC-DUS Exclusive





Format                                   : MPEG-4
Format profile                           : Base Media
Codec ID                                 : isom (isom/iso2/avc1/mp41)
File size                                : 1.98 GiB
Duration                                 : 3 h 32 min
Overall bit rate                         : 1 337 kb/s
Writing application                      : Lavf58.17.101

Video
ID                                       : 1
Format                                   : AVC
Format/Info                              : Advanced Video Codec
Format profile                           : High@L4.1
Format settings                          : CABAC / 2 Ref Frames
Format settings, CABAC                   : Yes
Format settings, RefFrames               : 2 frames
Format settings, GOP                     : M=3, N=15
Codec ID                                 : avc1
Codec ID/Info                            : Advanced Video Coding
Duration                                 : 3 h 32 min
Bit rate                                 : 1 161 kb/s
Width                                    : 1 920 pixels
Height                                   : 1 080 pixels
Display aspect ratio                     : 16:9
Frame rate mode                          : Variable
Frame rate                               : 27.286 FPS
Minimum frame rate                       : 0.116 FPS
Maximum frame rate                       : 29.970 FPS
Original frame rate                      : 29.970 (30000/1001) FPS
Color space                              : YUV
Chroma subsampling                       : 4:2:0
Bit depth                                : 8 bits
Scan type                                : MBAFF
Scan type, store method                  : Interleaved fields
Scan order                               : Top Field First
Bits/(Pixel*Frame)                       : 0.021
Stream size                              : 1.72 GiB (87%)

Audio
ID                                       : 2
Format                                   : AAC
Format/Info                              : Advanced Audio Codec
Format profile                           : LC
Codec ID                                 : mp4a-40-2
Duration                                 : 3 h 32 min
Bit rate mode                            : Constant
Bit rate                                 : 168 kb/s
Channel(s)                               : 2 channels
Channel positions                        : Front: L R
Sampling rate                            : 48.0 kHz
Frame rate                               : 46.875 FPS (1024 SPF)
Compression mode                         : Lossy
Stream size                              : 255 MiB (13%)
Default                                  : Yes
Alternate group                          : 1


Sanju (2018) 1080p - HDTV - AVC - AAC-DUS ExclusiveSanju (2018) 1080p - HDTV - AVC - AAC-DUS ExclusiveSanju (2018) 1080p - HDTV - AVC - AAC-DUS ExclusiveSanju (2018) 1080p - HDTV - AVC - AAC-DUS ExclusiveSanju (2018) 1080p - HDTV - AVC - AAC-DUS ExclusiveSanju (2018) 1080p - HDTV - AVC - AAC-DUS ExclusiveSanju (2018) 1080p - HDTV - AVC - AAC-DUS Exclusive

SINGLE DIRECT FAST LINKS
http://www.heroupload.us/8f7f55a001cd3d6e/Sanju.2018.1080p.HDTVRip.Untouched-DUS.mp4


http://filefloater.com/2B2s/Sanju.2018.1080p.HDTVRip.Untouched-DUS.mp4







Buy Premium From My Links & Support Me

Теги: Sanju

Dear visitor, you are browsing our website as Guest.
We strongly recommend you to register and login to view hidden contents.

Comments:

Add Comments
Reply
  • Group: Guests
  • ICQ:
  • Registration: --
  • Status:
  • 0 Comment
  • 0 Article
^
this is this kind of beatific resource which you are providing and you come back to an goodwill it away for forgive. I hero worship seeing weblog that acquire the price of presenting a mood useful resource for clean.메이저놀이터
Reply
  • Group: Guests
  • ICQ:
  • Registration: --
  • Status:
  • 0 Comment
  • 0 Article
^
Extremely helpful post. This is my first time i visit here. I discovered such a large number of intriguing stuff in your blog particularly its exchange. Truly its extraordinary article. Keep it up. see more