Set as default Homepage|Bookmark
 
 
» » Mission Impossible 6 (2018) 1080p HDRip x264 [Multi Audios][Hindi+Telugu+Tamil+Eng]
Advertise

Mission Impossible 6 (2018) 1080p HDRip x264 [Multi Audios][Hindi+Telugu+Tamil+Eng]

Author: wroser on 13-09-2018, 21:46
Mission Impossible 6 (2018) 1080p HDRip x264 [Multi Audios][Hindi+Telugu+Tamil+Eng]





Format                      : Matroska
Format version              : Version 4 / Version 2
File size                   : 2.53 GiB
Duration                    : 2 h 27 min
Overall bit rate mode       : Variable
Overall bit rate            : 2 461 kb/s
Encoded date                : UTC 2018-09-13 06:04:07
Writing application         : mkvmerge v7.1.0 ('Good Love') 32bit built on Jul 27 2014 12:59:18
Writing library             : libebml v1.3.0 + libmatroska v1.4.1

Video
ID                          : 1
Format                      : AVC
Format/Info                 : Advanced Video Codec
Format profile              : High@L4.1
Format settings, CABAC      : Yes
Format settings, RefFrames  : 1 frame
Codec ID                    : V_MPEG4/ISO/AVC
Duration                    : 2 h 27 min
Bit rate                    : 2 100 kb/s
Width                       : 1 920 pixels
Height                      : 800 pixels
Display aspect ratio        : 2.40:1
Frame rate mode             : Constant
Frame rate                  : 29.970 (30000/1001) FPS
Color space                 : YUV
Chroma subsampling          : 4:2:0
Bit depth                   : 8 bits
Scan type                   : Progressive
Bits/(Pixel*Frame)          : 0.046
Stream size                 : 2.16 GiB (85%)
Writing library             : x264 core 155 r2901 7d0ff22
Encoding settings           : cabac=1 / ref=1 / deblock=1:-2:-2 / analyse=0x3:0x113 / me=hex / subme=8 / psy=1 / psy_rd=1.00:0.15 / mixed_ref=0 / me_range=16 / chroma_me=1 / trellis=2 / 8x8dct=1 / cqm=0 / deadzone=21,11 / fast_pskip=0 / chroma_qp_offset=-3 / threads=25 / lookahead_threads=4 / sliced_threads=0 / nr=0 / decimate=0 / interlaced=0 / bluray_compat=0 / constrained_intra=0 / bframes=0 / weightp=2 / keyint=12 / keyint_min=1 / scenecut=40 / intra_refresh=0 / rc_lookahead=37 / rc=2pass / mbtree=1 / bitrate=2100 / ratetol=1.0 / qcomp=0.80 / qpmin=0 / qpmax=69 / qpstep=4 / cplxblur=20.0 / qblur=0.5 / vbv_maxrate=62500 / vbv_bufsize=78125 / nal_hrd=none / filler=0 / ip_ratio=1.40 / aq=1:0.50
Language                    : English
Default                     : Yes
Forced                      : No
Color range                 : Limited
Color primaries             : BT.709
Transfer characteristics    : BT.709
Matrix coefficients         : BT.709

Audio #1
ID                          : 2
Format                      : MPEG Audio
Format version              : Version 1
Format profile              : Layer 3
Mode                        : Joint stereo
Mode extension              : MS Stereo
Codec ID                    : A_MPEG/L3
Codec ID/Hint               : MP3
Duration                    : 2 h 27 min
Bit rate mode               : Variable
Bit rate                    : 87.8 kb/s
Nominal bit rate            : 96.0 kb/s
Channel(s)                  : 2 channels
Sampling rate               : 48.0 kHz
Frame rate                  : 41.667 FPS (1152 SPF)
Compression mode            : Lossy
Stream size                 : 92.4 MiB (4%)
Writing library             : LAME3.99r
Encoding settings           : -m j -V 4 -q 3 -lowpass 15.1 --abr 96
Language                    : Telugu
Default                     : Yes
Forced                      : No

Audio #2
ID                          : 3
Format                      : MPEG Audio
Format version              : Version 1
Format profile              : Layer 3
Mode                        : Joint stereo
Mode extension              : MS Stereo
Codec ID                    : A_MPEG/L3
Codec ID/Hint               : MP3
Duration                    : 2 h 27 min
Bit rate mode               : Variable
Bit rate                    : 84.1 kb/s
Nominal bit rate            : 96.0 kb/s
Channel(s)                  : 2 channels
Sampling rate               : 44.1 kHz
Frame rate                  : 38.281 FPS (1152 SPF)
Compression mode            : Lossy
Stream size                 : 88.6 MiB (3%)
Writing library             : LAME3.99r
Encoding settings           : -m j -V 4 -q 3 -lowpass 15.1 --abr 96
Language                    : Tamil
Default                     : No
Forced                      : No

Audio #3
ID                          : 4
Format                      : MPEG Audio
Format version              : Version 1
Format profile              : Layer 3
Mode                        : Joint stereo
Mode extension              : MS Stereo
Codec ID                    : A_MPEG/L3
Codec ID/Hint               : MP3
Duration                    : 2 h 27 min
Bit rate mode               : Variable
Bit rate                    : 90.2 kb/s
Nominal bit rate            : 96.0 kb/s
Channel(s)                  : 2 channels
Sampling rate               : 44.1 kHz
Frame rate                  : 38.281 FPS (1152 SPF)
Compression mode            : Lossy
Stream size                 : 95.1 MiB (4%)
Writing library             : LAME3.99r
Encoding settings           : -m j -V 4 -q 3 -lowpass 15.1 --abr 96
Language                    : Hindi
Default                     : No
Forced                      : No

Audio #4
ID                          : 5
Format                      : MPEG Audio
Format version              : Version 1
Format profile              : Layer 3
Mode                        : Joint stereo
Mode extension              : MS Stereo
Codec ID                    : A_MPEG/L3
Codec ID/Hint               : MP3
Duration                    : 2 h 27 min
Bit rate mode               : Variable
Bit rate                    : 96.0 kb/s
Channel(s)                  : 2 channels
Sampling rate               : 44.1 kHz
Frame rate                  : 38.281 FPS (1152 SPF)
Compression mode            : Lossy
Stream size                 : 99.4 MiB (4%)
Writing library             : LAME3.99r
Encoding settings           : -m j -V 4 -q 3 -lowpass 15.1 --abr 96
Language                    : English
Default                     : No
Forced                      : No

Text
ID                          : 6
Format                      : UTF-8
Codec ID                    : S_TEXT/UTF8
Codec ID/Info               : UTF-8 Plain Text
Duration                    : 2 h 19 min
Bit rate                    : 47 b/s
Count of elements           : 1249
Stream size                 : 48.4 KiB (0%)
Language                    : English
Default                     : No
Forced                      : No



Mission Impossible 6 (2018) 1080p HDRip x264 [Multi Audios][Hindi+Telugu+Tamil+Eng]Mission Impossible 6 (2018) 1080p HDRip x264 [Multi Audios][Hindi+Telugu+Tamil+Eng]Mission Impossible 6 (2018) 1080p HDRip x264 [Multi Audios][Hindi+Telugu+Tamil+Eng]Mission Impossible 6 (2018) 1080p HDRip x264 [Multi Audios][Hindi+Telugu+Tamil+Eng]Mission Impossible 6 (2018) 1080p HDRip x264 [Multi Audios][Hindi+Telugu+Tamil+Eng]Mission Impossible 6 (2018) 1080p HDRip x264 [Multi Audios][Hindi+Telugu+Tamil+Eng]Mission Impossible 6 (2018) 1080p HDRip x264 [Multi Audios][Hindi+Telugu+Tamil+Eng]


SINGLE DIRECT FAST LINKS
http://www.heroupload.us/b4357a66864af851/Mission.Impossible.6.2018.HDRip.1080p.HQ.Line.Telugu+Tamil+Hindi+English.mkv


http://filefloater.com/30Pu/Mission.Impossible.6.2018.HDRip.1080p.HQ.Line.Telugu+Tamil+Hindi+English.mkv

700MB LINKS

http://www.heroupload.us/65cf7c3d612e7bc2/Mission.Impossible.6.2018.HDRip.1080p.HQ.Line.Telugu+Tamil+Hindi+English.part1.rar
http://www.heroupload.us/e8c0f818c9813ba6/Mission.Impossible.6.2018.HDRip.1080p.HQ.Line.Telugu+Tamil+Hindi+English.part2.rar
http://www.heroupload.us/e78706cb17918583/Mission.Impossible.6.2018.HDRip.1080p.HQ.Line.Telugu+Tamil+Hindi+English.part3.rar
http://www.heroupload.us/b0de8a60bf96f95f/Mission.Impossible.6.2018.HDRip.1080p.HQ.Line.Telugu+Tamil+Hindi+English.part4.rar



http://filefloater.com/30Pv/Mission.Impossible.6.2018.HDRip.1080p.HQ.Line.Telugu+Tamil+Hindi+English.part1.rar
http://filefloater.com/30Pw/Mission.Impossible.6.2018.HDRip.1080p.HQ.Line.Telugu+Tamil+Hindi+English.part2.rar
http://filefloater.com/30Px/Mission.Impossible.6.2018.HDRip.1080p.HQ.Line.Telugu+Tamil+Hindi+English.part3.rar
http://filefloater.com/30Py/Mission.Impossible.6.2018.HDRip.1080p.HQ.Line.Telugu+Tamil+Hindi+English.part4.rar




Buy Premium From My Links & Support Me

Теги: Mission

Dear visitor, you are browsing our website as Guest.
We strongly recommend you to register and login to view hidden contents.

Comments:

Add Comments
Reply
  • Group: Guests
  • ICQ:
  • Registration: --
  • Status:
  • 0 Comment
  • 0 Article
^
Thank you for helping people get the information they need. Great stuff as usual. Keep up the great work!!!
my gmail login
Reply
  • Group: Guests
  • ICQ:
  • Registration: --
  • Status:
  • 0 Comment
  • 0 Article
^
This blog is started with some history of the mission impossibl. I just like to add the more value of blogs with the help of this aditional smartwritingservice.com reviews blog. This blog is really important for all the readers.
Reply
  • Group: Guests
  • ICQ:
  • Registration: --
  • Status:
  • 0 Comment
  • 0 Article
^
Wow this was amazing. I was just about to look for some expert and educative content like this, I am grateful that I have frequented here! high authority backlinks
Reply
  • Group: Guests
  • ICQ:
  • Registration: --
  • Status:
  • 0 Comment
  • 0 Article
^
Their are approximately few individuals who need to movement in the plane. They said after the voyaging that they are never travel in that sort of best https://writemyaustralia.com/review-of-essayroo/. What's more, they turn out to be exceptionally glad after this sort of voyaging.
Reply
  • muneer

  • 24 October 2018 12:08
  • Group: Guests
  • ICQ:
  • Registration: --
  • Status:
  • 0 Comment
  • 0 Article
^
Awesome review, I am a major devotee to remarking on web journals to educate the web journal scholars realize that they've added something beneficial to the internet!..places open near me
Reply
  • Group: Guests
  • ICQ:
  • Registration: --
  • Status:
  • 0 Comment
  • 0 Article
^
I found that site very usefull and this survey is very cirious, I ' ve never seen a blog that demand a survey for this actions, very curious... 50 likes on instagram hashtags
Reply
  • Group: Guests
  • ICQ:
  • Registration: --
  • Status:
  • 0 Comment
  • 0 Article
^
Its my great pleasure to visit your blog and to enjoy your great posts here. I like it a lot. I can feel that you paid much attention for those articles, as all of them make sense and are very useful. fast food restaurants open near me