Set as default Homepage|Bookmark
 
 
» » Avengers: Infinity War (2018) 4K UHD BluRay x265 DD5.1 [Multi Audio][Hin+Tel+Tam+Eng]
Advertise

Avengers: Infinity War (2018) 4K UHD BluRay x265 DD5.1 [Multi Audio][Hin+Tel+Tam+Eng]

Author: wroser on 18-08-2018, 18:24
Avengers: Infinity War (2018) 4K UHD BluRay x265 DD5.1 [Multi Audio][Hin+Tel+Tam+Eng]




Avengers: Infinity War (2018) 4K UHD BluRay x265 DD5.1 [Multi Audio][Hindi+Telugu+Tamil+English]
Format                      : Matroska
Format version              : Version 4 / Version 2
File size                   : 4.72 GiB
Duration                    : 2 h 29 min
Overall bit rate            : 4 527 kb/s
Encoded date                : UTC 2018-08-18 08:57:43
Writing application         : mkvmerge v8.2.0 ('World of Adventure') 64bit
Writing library             : libebml v1.3.1 + libmatroska v1.4.2

Video
ID                          : 1
Format                      : HEVC
Format/Info                 : High Efficiency Video Coding
Format profile              : Main 10@L5@Main
Codec ID                    : V_MPEGH/ISO/HEVC
Duration                    : 2 h 29 min
Bit rate                    : 3 234 kb/s
Width                       : 3 840 pixels
Height                      : 1 616 pixels
Display aspect ratio        : 2.40:1
Frame rate mode             : Constant
Frame rate                  : 23.976 (24000/1001) FPS
Color space                 : YUV
Chroma subsampling          : 4:2:0
Bit depth                   : 10 bits
Bits/(Pixel*Frame)          : 0.022
Stream size                 : 3.37 GiB (71%)
Language                    : English
Default                     : Yes
Forced                      : No
Color range                 : Limited
Color primaries             : BT.2020
Transfer characteristics    : SMPTE ST 2084
Matrix coefficients         : BT.2020 non-constant
Mastering display color pri : R: x=0.680000 y=0.320000, G: x=0.265000 y=0.690000, B: x=0.150000 y=0.060000, White point: x=0.312700 y=0.329000
Mastering display luminance : min: 0.0001 cd/m2, max: 1000.0000 cd/m2

Audio #1
ID                          : 2
Format                      : AC-3
Format/Info                 : Audio Coding 3
Format settings, Endianness : Big
Codec ID                    : A_AC3
Duration                    : 2 h 29 min
Bit rate mode               : Constant
Bit rate                    : 384 kb/s
Channel(s)                  : 6 channels
Channel positions           : Front: L C R, Side: L R, LFE
Sampling rate               : 44.1 kHz
Frame rate                  : 28.711 FPS (1536 SPF)
Bit depth                   : 16 bits
Compression mode            : Lossy
Stream size                 : 410 MiB (8%)
Language                    : Telugu
Service kind                : Complete Main
Default                     : Yes
Forced                      : No

Audio #2
ID                          : 3
Format                      : AC-3
Format/Info                 : Audio Coding 3
Format settings, Endianness : Big
Codec ID                    : A_AC3
Duration                    : 2 h 29 min
Bit rate mode               : Constant
Bit rate                    : 384 kb/s
Channel(s)                  : 6 channels
Channel positions           : Front: L C R, Side: L R, LFE
Sampling rate               : 44.1 kHz
Frame rate                  : 28.711 FPS (1536 SPF)
Bit depth                   : 16 bits
Compression mode            : Lossy
Stream size                 : 410 MiB (8%)
Language                    : Tamil
Service kind                : Complete Main
Default                     : No
Forced                      : No

Audio #3
ID                          : 4
Format                      : AC-3
Format/Info                 : Audio Coding 3
Format settings, Endianness : Big
Codec ID                    : A_AC3
Duration                    : 2 h 29 min
Bit rate mode               : Constant
Bit rate                    : 384 kb/s
Channel(s)                  : 6 channels
Channel positions           : Front: L C R, Side: L R, LFE
Sampling rate               : 44.1 kHz
Frame rate                  : 28.711 FPS (1536 SPF)
Bit depth                   : 16 bits
Compression mode            : Lossy
Stream size                 : 410 MiB (8%)
Language                    : Hindi
Service kind                : Complete Main
Default                     : No
Forced                      : No

Audio #4
ID                          : 5
Format                      : AAC
Format/Info                 : Advanced Audio Codec
Format profile              : LC
Codec ID                    : A_AAC
Duration                    : 2 h 29 min
Bit rate                    : 137 kb/s
Channel(s)                  : 2 channels
Channel positions           : Front: L R
Sampling rate               : 48.0 kHz
Frame rate                  : 46.875 FPS (1024 SPF)
Compression mode            : Lossy
Stream size                 : 146 MiB (3%)
Language                    : English
Default                     : No
Forced                      : No

Text
ID                          : 6
Format                      : UTF-8
Codec ID                    : S_TEXT/UTF8
Codec ID/Info               : UTF-8 Plain Text
Duration                    : 2 h 28 min
Bit rate                    : 49 b/s
Count of elements           : 2067
Stream size                 : 53.9 KiB (0%)
Language                    : English
Default                     : Yes
Forced                      : No


Avengers: Infinity War (2018) 4K UHD BluRay x265 DD5.1 [Multi Audio][Hin+Tel+Tam+Eng]Avengers: Infinity War (2018) 4K UHD BluRay x265 DD5.1 [Multi Audio][Hin+Tel+Tam+Eng]Avengers: Infinity War (2018) 4K UHD BluRay x265 DD5.1 [Multi Audio][Hin+Tel+Tam+Eng]Avengers: Infinity War (2018) 4K UHD BluRay x265 DD5.1 [Multi Audio][Hin+Tel+Tam+Eng]


SINGLE DIRECT FAST LINKS
http://www.heroupload.us/fe0dff7c18f5e56f/Avengers.Infinity.War.2018.BluRay.4K.x265.Original.DD5.1.384Kbps.Telugu+Tamil+Hindi+English.mkv


http://filefloater.com/Uit/Avengers.Infinity.War.2018.BluRay.4K.x265.Original.DD5.1.384Kbps.Telugu+Tamil+Hindi+English.mkv

1GB LINKS

http://www.heroupload.us/5a7cf45937bac58d/Avengers.Infinity.War.2018.BluRay.4K.x265.Original.DD5.1.384Kbps.Telugu+Tamil+Hindi+English.part1.rar
http://www.heroupload.us/9ce1dafd72b2a9e2/Avengers.Infinity.War.2018.BluRay.4K.x265.Original.DD5.1.384Kbps.Telugu+Tamil+Hindi+English.part2.rar
http://www.heroupload.us/c211e41622dd39ed/Avengers.Infinity.War.2018.BluRay.4K.x265.Original.DD5.1.384Kbps.Telugu+Tamil+Hindi+English.part3.rar
http://www.heroupload.us/ba4e3086e359377a/Avengers.Infinity.War.2018.BluRay.4K.x265.Original.DD5.1.384Kbps.Telugu+Tamil+Hindi+English.part4.rar
http://www.heroupload.us/cc3eb17698a4fde1/Avengers.Infinity.War.2018.BluRay.4K.x265.Original.DD5.1.384Kbps.Telugu+Tamil+Hindi+English.part5.rar



http://filefloater.com/Uiu/Avengers.Infinity.War.2018.BluRay.4K.x265.Original.DD5.1.384Kbps.Telugu+Tamil+Hindi+English.part1.rar
http://filefloater.com/Uiv/Avengers.Infinity.War.2018.BluRay.4K.x265.Original.DD5.1.384Kbps.Telugu+Tamil+Hindi+English.part2.rar
http://filefloater.com/Uiw/Avengers.Infinity.War.2018.BluRay.4K.x265.Original.DD5.1.384Kbps.Telugu+Tamil+Hindi+English.part3.rar
http://filefloater.com/Uix/Avengers.Infinity.War.2018.BluRay.4K.x265.Original.DD5.1.384Kbps.Telugu+Tamil+Hindi+English.part4.rar
http://filefloater.com/Uiy/Avengers.Infinity.War.2018.BluRay.4K.x265.Original.DD5.1.384Kbps.Telugu+Tamil+Hindi+English.part5.rar


Buy Premium From My Links & Support Me

Теги: Avengers

Dear visitor, you are browsing our website as Guest.
We strongly recommend you to register and login to view hidden contents.

Comments:

Add Comments
Reply
  • Group: Guests
  • ICQ:
  • Registration: --
  • Status:
  • 0 Comment
  • 0 Article
^
Really enjoyed this movie very much ,but it made a little bit sorrow at the last.Eagerly waiting for the ending game.Have seen the trailer of ending game.But who was the person talking to the cctv camera?