Set as default Homepage|Bookmark
 
 
» » Avengers Infinity War (2018) 720p BluRay x264 [Multi Audios][Hindi+Telugu+Tamil+Eng]
Advertise

Avengers Infinity War (2018) 720p BluRay x264 [Multi Audios][Hindi+Telugu+Tamil+Eng]

Author: wroser on 17-08-2018, 12:02
Avengers Infinity War (2018) 720p BluRay x264 [Multi Audios][Hindi+Telugu+Tamil+Eng]





Format                      : Matroska
Format version              : Version 4 / Version 2
File size                   : 1.57 GiB
Duration                    : 2 h 29 min
Overall bit rate            : 1 501 kb/s
Encoded date                : UTC 2018-08-17 05:26:01
Writing application         : mkvmerge v8.2.0 ('World of Adventure') 64bit
Writing library             : libebml v1.3.1 + libmatroska v1.4.2

Video
ID                          : 1
Format                      : AVC
Format/Info                 : Advanced Video Codec
Format profile              : High@L4.1
Format settings, CABAC      : Yes
Format settings, RefFrames  : 4 frames
Codec ID                    : V_MPEG4/ISO/AVC
Duration                    : 2 h 29 min
Bit rate                    : 1 050 kb/s
Width                       : 1 280 pixels
Height                      : 534 pixels
Display aspect ratio        : 2.40:1
Original display aspect rat : 2.40:1
Frame rate mode             : Constant
Frame rate                  : 23.976 (24000/1001) FPS
Color space                 : YUV
Chroma subsampling          : 4:2:0
Bit depth                   : 8 bits
Scan type                   : Progressive
Bits/(Pixel*Frame)          : 0.064
Stream size                 : 1.10 GiB (70%)
Writing library             : x264 core 155
Encoding settings           : cabac=1 / ref=4 / deblock=1:-1:-1 / analyse=0x3:0x133 / me=umh / subme=9 / psy=1 / psy_rd=1.00:0.15 / mixed_ref=1 / me_range=24 / chroma_me=1 / trellis=2 / 8x8dct=1 / cqm=0 / deadzone=21,11 / fast_pskip=0 / chroma_qp_offset=-3 / threads=17 / lookahead_threads=1 / sliced_threads=0 / nr=0 / decimate=1 / interlaced=0 / bluray_compat=0 / constrained_intra=0 / bframes=3 / b_pyramid=2 / b_adapt=2 / b_bias=0 / direct=3 / weightb=1 / open_gop=0 / weightp=2 / keyint=250 / keyint_min=23 / scenecut=40 / intra_refresh=0 / rc_lookahead=60 / rc=2pass / mbtree=1 / bitrate=1050 / ratetol=1.0 / qcomp=0.60 / qpmin=0 / qpmax=69 / qpstep=4 / cplxblur=20.0 / qblur=0.5 / vbv_maxrate=31250 / vbv_bufsize=31250 / nal_hrd=none / filler=0 / ip_ratio=1.40 / aq=1:1.00
Language                    : English
Default                     : Yes
Forced                      : Yes

Audio #1
ID                          : 2
Format                      : MPEG Audio
Format version              : Version 1
Format profile              : Layer 3
Mode                        : Joint stereo
Codec ID                    : A_MPEG/L3
Codec ID/Hint               : MP3
Duration                    : 2 h 29 min
Bit rate mode               : Constant
Bit rate                    : 128 kb/s
Channel(s)                  : 2 channels
Sampling rate               : 48.0 kHz
Frame rate                  : 41.667 FPS (1152 SPF)
Compression mode            : Lossy
Stream size                 : 137 MiB (9%)
Language                    : Telugu
Default                     : Yes
Forced                      : Yes

Audio #2
ID                          : 3
Format                      : MPEG Audio
Format version              : Version 1
Format profile              : Layer 3
Mode                        : Joint stereo
Mode extension              : MS Stereo
Codec ID                    : A_MPEG/L3
Codec ID/Hint               : MP3
Duration                    : 2 h 29 min
Bit rate mode               : Constant
Bit rate                    : 128 kb/s
Channel(s)                  : 2 channels
Sampling rate               : 48.0 kHz
Frame rate                  : 41.667 FPS (1152 SPF)
Compression mode            : Lossy
Stream size                 : 137 MiB (9%)
Language                    : Tamil
Default                     : No
Forced                      : No

Audio #3
ID                          : 4
Format                      : MPEG Audio
Format version              : Version 1
Format profile              : Layer 3
Mode                        : Joint stereo
Mode extension              : MS Stereo
Codec ID                    : A_MPEG/L3
Codec ID/Hint               : MP3
Duration                    : 2 h 29 min
Bit rate mode               : Constant
Bit rate                    : 128 kb/s
Channel(s)                  : 2 channels
Sampling rate               : 48.0 kHz
Frame rate                  : 41.667 FPS (1152 SPF)
Compression mode            : Lossy
Stream size                 : 137 MiB (9%)
Language                    : Hindi
Default                     : No
Forced                      : No

Audio #4
ID                          : 5
Format                      : MPEG Audio
Format version              : Version 1
Format profile              : Layer 3
Mode                        : Joint stereo
Mode extension              : MS Stereo
Codec ID                    : A_MPEG/L3
Codec ID/Hint               : MP3
Duration                    : 2 h 29 min
Bit rate mode               : Constant
Bit rate                    : 64.0 kb/s
Channel(s)                  : 2 channels
Sampling rate               : 44.1 kHz
Frame rate                  : 38.281 FPS (1152 SPF)
Compression mode            : Lossy
Stream size                 : 68.4 MiB (4%)
Writing library             : LAME3.98.2
Language                    : English
Default                     : No
Forced                      : No

Text
ID                          : 6
Format                      : UTF-8
Codec ID                    : S_TEXT/UTF8
Codec ID/Info               : UTF-8 Plain Text
Duration                    : 2 h 28 min
Bit rate                    : 42 b/s
Count of elements           : 1724
Stream size                 : 46.5 KiB (0%)
Language                    : English
Default                     : Yes
Forced                      : Yes


Avengers Infinity War (2018) 720p BluRay x264 [Multi Audios][Hindi+Telugu+Tamil+Eng]Avengers Infinity War (2018) 720p BluRay x264 [Multi Audios][Hindi+Telugu+Tamil+Eng]Avengers Infinity War (2018) 720p BluRay x264 [Multi Audios][Hindi+Telugu+Tamil+Eng]Avengers Infinity War (2018) 720p BluRay x264 [Multi Audios][Hindi+Telugu+Tamil+Eng]Avengers Infinity War (2018) 720p BluRay x264 [Multi Audios][Hindi+Telugu+Tamil+Eng]Avengers Infinity War (2018) 720p BluRay x264 [Multi Audios][Hindi+Telugu+Tamil+Eng]

SINGLE DIRECT FAST LINKS
http://www.heroupload.us/620b94387d715312/Avengers.Infinity.War.2018.BluRay.720p.x264.Original.Audios.Telugu+Tamil+Hindi+English.mkv



http://filefloater.com/1Kiq/Avengers.Infinity.War.2018.BluRay.720p.x264.Original.Audios.Telugu+Tamil+Hindi+English.mkv





Buy Premium From My Links & Support Me

Теги: Avengers

Dear visitor, you are browsing our website as Guest.
We strongly recommend you to register and login to view hidden contents.

Comments:

Add Comments