Set as default Homepage|Bookmark
 
 
» Articles for 15.09.2020 » page 5
Advertise
Sort articles by: Date | Most Rates | Most Views | Comments | Alphabet

Love Kaa Taddka (2009) 480p - HD-DVDRip - AVC - AAC-Bollywooda2z

Author: wroser on 15-09-2020, 13:17

Love Kaa Taddka (2009) 480p - HD-DVDRip - AVC - AAC-Bollywooda2z


Format                      : MPEG-4
Format profile              : Base Media
Codec ID                    : isom (isom)
File size                   : 1.06 GiB
Duration                    : 1 h 50 min
Overall bit rate mode       : Variable
Overall bit rate            : 1 368 kb/s
Encoded date                : UTC 2018-03-21 03:44:00
Tagged date                 : UTC 2018-03-21 03:44:00

Video
ID                          : 1
Format                      : AVC
Format/Info                 : Advanced Video Codec
Format profile              : 
Format settings, CABAC      : Yes
Format settings, RefFrames  : 8 frames
Codec ID                    : avc1
Codec ID/Info               : Advanced Video Coding
Duration                    : 1 h 50 min
Bit rate                    : 1 300 kb/s
Maximum bit rate            : 5 515 kb/s
Width                       : 712 pixels
Height                      : 476 pixels
Display aspect ratio        : 1.85:1
Original display aspect rat : 1.85:1
Frame rate mode             : Constant
Frame rate                  : 29.970 (30000/1001) FPS
Color space                 : YUV
Chroma subsampling          : 4:2:0
Bit depth                   : 8 bits
Scan type                   : Progressive
Bits/(Pixel*Frame)          : 0.128
Stream size                 : 1.01 GiB (95%)
Writing library             : x264 core 146 r2538 121396c
Encoding settings           : cabac=1 / ref=8 / deblock=1:-1:-1 / analyse=0x1:0x131 / me=umh / subme=9 / psy=1 / psy_rd=1.00:0.15 / mixed_ref=1 / me_range=16 / chroma_me=1 / trellis=2 / 8x8dct=0 / cqm=0 / deadzone=21,11 / fast_pskip=1 / chroma_qp_offset=-3 / threads=12 / lookahead_threads=1 / sliced_threads=0 / nr=0 / decimate=1 / interlaced=0 / bluray_compat=0 / constrained_intra=0 / bframes=3 / b_pyramid=2 / b_adapt=2 / b_bias=0 / direct=3 / weightb=1 / open_gop=0 / weightp=2 / keyint=300 / keyint_min=29 / scenecut=40 / intra_refresh=0 / rc_lookahead=60 / rc=2pass / mbtree=1 / bitrate=1300 / ratetol=1.0 / qcomp=0.60 / qpmin=0 / qpmax=69 / qpstep=4 / cplxblur=20.0 / qblur=0.5 / vbv_maxrate=4000 / vbv_bufsize=4000 / nal_hrd=none / filler=0 / ip_ratio=1.40 / aq=1:1.00
Encoded date                : UTC 2018-03-20 19:46:39
Tagged date                 : UTC 2018-03-21 03:44:10

Audio
ID                          : 2
Format                      : AAC
Format/Info                 : Advanced Audio Codec
Format profile              : LC
Codec ID                    : 40
Duration                    : 1 h 50 min
Bit rate mode               : Variable
Bit rate                    : 63.9 kb/s
Maximum bit rate            : 78.2 kb/s
Channel(s)                  : 2 channels
Channel positions           : Front: L R
Sampling rate               : 48.0 kHz
Frame rate                  : 46.875 FPS (1024 SPF)
Compression mode            : Lossy
Stream size                 : 50.6 MiB (5%)
Encoded date                : UTC 2018-03-20 19:47:35
Tagged date                 : UTC 2018-03-21 03:44:10



Love Kaa Taddka (2009) 480p - HD-DVDRip - AVC - AAC-Bollywooda2z
SINGLE DIRECT FAST LINKS




https://www.heroupload.com/339842cca4c5aa00/Love.Kaa.Taddka.mp4


Mytoolsoft Watermark Software 5.0.10 + Portable

Author: xxx on 15-09-2020, 12:16

Mytoolsoft Watermark Software 5.0.10 + Portable
File size: 7.5 MB

Mytoolsoft Watermark Software is an easy-to-use watermark software which was created to help you add watermarks to multiple photos at once. Easy three-step operation to complete. Support text watermark and image watermark. Freedom of watermark location and styles. Protect your photos without unauthorized distribution.

EximiousSoft ePage Creator v3.06

Author: xxx on 15-09-2020, 12:14

EximiousSoft ePage Creator v3.06
File size: 19.6 MB

EximiousSoft ePage Creator the all-in-one type of digital publishing software for business or personal users. With it, you can easily create, edit, print, and publish any PDF documents. Besides that, It enables you to convert PDF files, Microsoft Word documents (docx; doc), RTF documents, TXT files and embedded images, movies, music, hyperlinks, texts, hotspots, even YouTube videos to stunning page-turning digital publications, magazines, and catalogues etc. Once you've created your page-flipping masterpiece in ePage Creator, you can publish it to the web, send via email, and even distribute it on CD or mobile (Android devices).

GiliSoft USB Lock 8.8.0 Multilingual

Author: xxx on 15-09-2020, 12:13

GiliSoft USB Lock 8.8.0 Multilingual
File size: 6.0 MB

GiliSoft USB Lock is a data leak prevention tool that prevents leakage and copy of your data to USB Drives, External Drives, CDs/DVDs or other such portable devices. Once installed, USB Lock lets you block all such drives and devices that do not belong to you. With USB Lock, you can share your PC with anyone without fear of data theft.This is an easy USB Secure Software and powerful Endpoint DLP Suite that helps you to lock usb port,make dvd/cd burner read-only,block some websites,forbid some programs and disable more devices.

EximiousSoft PDF Editor v3.05

Author: xxx on 15-09-2020, 12:12

EximiousSoft PDF Editor v3.05
File size: 12.3 MB

Eximious Soft PDF Editor gives an All-In-One ultimate solution for the editors who are editing PDF documents with most of time. It supports to create, visually edit PDF documents and convert freely among PDF and other popular document formats. You are free to add or delete pages, texts, images, graphics, comments and watermarks etc. from/into documents, enables to merge multiple PDF documents into a single one or split complex documents as you needed.

TBProAudio Bundle 2020.9.2

Author: xxx on 15-09-2020, 12:11

TBProAudio Bundle 2020.9.2
File size: 63 MB

TBProAudio - Professional Audio Tools.

TriSun WinExt Pro 11.0 Build 056 Multilingual

Author: xxx on 15-09-2020, 12:10

TriSun WinExt Pro 11.0 Build 056 Multilingual
Languages: Multilingual | File size: 2.62 MB

Keeping your files and folders organized becomes easier when aided by third-party solutions. WinExt is an app capable of locating and removing duplicate files to free up space, identifying large resources to help you figure out what's taking up so much space, monitoring directories for file operations, and more. Wrapped in a clean and intuitive interface, the program has options neatly organized in different areas, so you can quickly access duplicates, sizes, recent or Windows activity, batch operations, sync modes, as well as program settings.