Set as default Homepage|Bookmark
 
 
Advertise
Sort articles by: Date | Most Rates | Most Views | Comments | Alphabet

Enai Noki Paayum Thota (2019) 1080p 10-Bit HEVC HDRip x265 [Dual Audio][Hindi+Tamil]

Author: wroser on Yesterday, 16:26


Enai Noki Paayum Thota (2019) 1080p 10-Bit HEVC HDRip x265 [Dual Audio][Hindi+Tamil]

General:

File Size: 2.34 GB | Duration: 02:31:03 | Format: mkv
Audio A_AC3 | 192 Kbps | 2 Channels
Video: HEVC | 1857 Kbps | 1920x820 | 24.000 fps

Language :
Hindi, Tamil
Subtitles : English

IMDB information:

iMDB URL

Title: Enai Noki Paayum Thota (2019)
Genres: Action, Drama, Romance, Thriller
Description: Raghu, a normal college guy gets dragged into trouble when he falls in love with Lekha and their whirlwind romance changes the course of his life.



Enai Noki Paayum Thota (2019) 720p HDRip x264 [Dual Audio][Hindi+Tamil] BHD

Author: wroser on Yesterday, 16:25


Enai Noki Paayum Thota (2019) 720p HDRip x264 [Dual Audio][Hindi+Tamil] BHD

General:

File Size: 1.14 GB | Duration: 02:31:03 | Format: mkv
Audio A_AAC-2 | 160 Kbps | 2 Channels
Video: AVC | 786 Kbps | 1280x540 | 24.000 fps

Language :
Tamil, Hindi
Subtitles : English

IMDB information:

iMDB URL

Title: Enai Noki Paayum Thota (2019)
Genres: Action, Drama, Romance, Thriller
Description: Raghu, a normal college guy gets dragged into trouble when he falls in love with Lekha and their whirlwind romance changes the course of his life.



Shakuntala Devi (2020) 1080p HDRip x264 DD5 1 ESubs-TeamTT

Author: wroser on 7-08-2020, 15:47


Shakuntala Devi (2020) 1080p HDRip x264 DD5 1 ESubs-TeamTT

General:

File Size: 4.2 GB | Duration: 02:07:00 | Format: mkv
Audio A_AC3 | 640 Kbps | 6 Channels
Video: AVC | 4101 Kbps | 1920x816 | 24.000 fps

Language :
Hindi
Subtitles : English

IMDB information:

iMDB URL

Title: Shakuntala Devi (2020)
Genres: Biography, Drama
Description: The extraordinary story of Shakuntala Devi, the world-renowned mathematician who lived her life on her own terms. While the film pays tribute to her genius as a mathematician, it also ...



Raat Akeli Hai (2020) 1080p HDRip x264 DD5 1 MSubs-TeamTT

Author: wroser on 7-08-2020, 15:46


Raat Akeli Hai (2020) 1080p HDRip x264 DD5 1 MSubs-TeamTT

General:

File Size: 5 GB | Duration: 02:29:44 | Format: mkv
Audio A_AC3 | 640 Kbps | 6 Channels
Video: AVC | 4141 Kbps | 1920x816 | 24.000 fps

Language :
Hindi
Subtitles : English, Arabic, Chinese, Croatian, Czech, Danish, Dutch, Finnish, French, German, Greek, Hebrew, Hindi, Hungarian, Indonesian, Italian, Japanese, Korean, Malay, Norwegian Bokmål, Polish, Portuguese, Romanian, Russian, Spanish, Swedish, Thai, Turkish, Vietnamese

IMDB information:

iMDB URL

Title: Raat Akeli Hai (2020)
Genres: Crime, Drama, Thriller
Description: The film follows a small town cop who is summoned to investigate the death of a politician which gets complicated by the victim's secretive family and his own conflicted heart.



Lootcase (2020) 1080p HDRip x264 DD5 1 ESubs-TeamTT

Author: wroser on 7-08-2020, 15:45


Lootcase (2020) 1080p HDRip x264 DD5 1 ESubs-TeamTT

General:

File Size: 4.13 GB | Duration: 02:11:57 | Format: mkv
Audio A_AC3 | 384 Kbps | 6 Channels
Video: AVC | 4100 Kbps | 1920x800 | 24.000 fps

Language :
Hindi
Subtitles : English

IMDB information:

iMDB URL

Title: Lootcase (2020)
Genres: Comedy
Description: Lootcase is a Hindi movie starring Kunal Kemmu, Rasika Duggal, Gajraj Rao, Ranvir Shorey and Vijay Raaz. in prominent roles. It is a drama directed by Rajesh Krishnan.



Yaara (2020) 1080p HDRip x264 AAC ESubs-TeamTT

Author: wroser on 7-08-2020, 15:44


Yaara (2020) 1080p HDRip x264 AAC ESubs-TeamTT

General:

File Size: 3.98 GB | Duration: 02:10:42 | Format: mkv
Audio A_AAC-2 | 192 Kbps | 2 Channels
Video: AVC | 4141 Kbps | 1920x816 | 25.000 fps

Language :
Hindi
Subtitles : English

IMDB information:

iMDB URL

Title: Yaara (2020)
Genres: Action, Crime, Drama
Description: Story of 'Chaukdi Gang' and the two men who helped build this gang played by Vidyut Jammwal and Amit Sadh. This gang of four which includes Vijay Varma, is nabbed by the police and serve ...



Dil Bechara (2020) 1080p HDRip x264 DD5 1 ESubs-TeamTT

Author: wroser on 7-08-2020, 15:43


Dil Bechara (2020) 1080p HDRip x264 DD5 1 ESubs-TeamTT

General:

File Size: 3.28 GB | Duration: 01:41:26 | Format: mkv
Audio A_AC3 | 384 Kbps | 6 Channels
Video: AVC | 4240 Kbps | 1920x804 | 24.000 fps

Language :
Hindi
Subtitles : English

IMDB information:

iMDB URL

Title: Dil Bechara (2020)
Genres: Comedy, Drama, Romance
Description: The emotional journey of two hopelessly in love youngsters, a young girl, Kizie, suffering from cancer, and a boy, Manny, who she meets at a support group.



Pareeksha (2020) 1080p HDRip x264 AAC ESubs-TeamTT

Author: wroser on 7-08-2020, 15:41


Pareeksha (2020) 1080p HDRip x264 AAC ESubs-TeamTT

General:

File Size: 3.1 GB | Duration: 01:42:16 | Format: mkv
Audio A_AAC-2 | 192 Kbps | 2 Channels
Video: AVC | 4141 Kbps | 1920x804 | 25.000 fps

Language :
Hindi
Subtitles : English

IMDB information:

iMDB URL

Title: Pareeksha (2020)
Genres: Drama
Description: The film revolves around the story of an ordinary rickshaw driver in Bihar who aspires and dreams of providing maximum possible quality education to his son by making arrangements for him to study at a private English medium school.



Bhagyawan (1994) 720p - HD-DVDRip - AVC - AAC-Bollywooda2z

Author: wroser on 7-08-2020, 10:47

Bhagyawan (1994) 720p - HD-DVDRip - AVC - AAC-Bollywooda2z


Format                      : MPEG-4
Format profile              : Base Media / Version 2
Codec ID                    : mp42 (isom/mp42)
File size                   : 922 MiB
Duration                    : 2 h 16 min
Overall bit rate mode       : Variable
Overall bit rate            : 945 kb/s
Encoded date                : UTC 2018-07-31 20:46:21
Tagged date                 : UTC 2018-07-31 20:46:21
gsst                        : 0
gstd                        : 8184290

Video
ID                          : 1
Format                      : AVC
Format/Info                 : Advanced Video Codec
Format profile              : 
Format settings, CABAC      : Yes
Format settings, RefFrames  : 3 frames
Codec ID                    : avc1
Codec ID/Info               : Advanced Video Coding
Duration                    : 2 h 16 min
Bit rate                    : 816 kb/s
Width                       : 1 280 pixels
Height                      : 720 pixels
Display aspect ratio        : 16:9
Frame rate mode             : Constant
Frame rate                  : 29.970 (30000/1001) FPS
Color space                 : YUV
Chroma subsampling          : 4:2:0
Bit depth                   : 8 bits
Scan type                   : Progressive
Bits/(Pixel*Frame)          : 0.030
Stream size                 : 796 MiB (86%)
Title                       : ISO Media file produced by Google Inc. Created on: 07/31/2018.
Encoded date                : UTC 2018-07-31 20:46:21
Tagged date                 : UTC 2018-07-31 20:46:21
Color range                 : Limited
Color primaries             : BT.709
Transfer characteristics    : BT.709
Matrix coefficients         : BT.709

Audio
ID                          : 2
Format                      : AAC
Format/Info                 : Advanced Audio Codec
Format profile              : LC
Codec ID                    : 40
Duration                    : 2 h 16 min
Bit rate mode               : Variable
Bit rate                    : 126 kb/s
Channel(s)                  : 2 channels
Channel positions           : Front: L R
Sampling rate               : 44.1 kHz
Frame rate                  : 43.066 FPS (1024 SPF)
Compression mode            : Lossy
Stream size                 : 123 MiB (13%)
Title                       : ISO Media file produced by Google Inc. Created on: 07/31/2018.
Language                    : English
Encoded date                : UTC 2018-07-31 20:46:21
Tagged date                 : UTC 2018-07-31 20:46:21



Bhagyawan (1994) 720p - HD-DVDRip - AVC - AAC-Bollywooda2z
SINGLE DIRECT FAST LINKS



https://www.heroupload.com/b1fc9df7e3af9785/Bhagyawan.720p-BollywoodA2z.mp4



Bhagyawan (1994) 720p - HD-DVDRip - AVC - AAC-Bollywooda2z

Khuddar (1994) 720p - HD-DVDRip - AVC - AAC-Bollywooda2z

Author: wroser on 7-08-2020, 10:46

Khuddar (1994) 720p - HD-DVDRip - AVC - AAC-Bollywooda2z


Format                      : MPEG-4
Format profile              : Base Media / Version 2
Codec ID                    : mp42 (isom/mp42)
File size                   : 1.26 GiB
Duration                    : 2 h 46 min
Overall bit rate mode       : Variable
Overall bit rate            : 1 077 kb/s
Encoded date                : UTC 2018-10-07 02:07:40
Tagged date                 : UTC 2018-10-07 02:07:40
gsst                        : 0
gstd                        : 10015973

Video
ID                          : 1
Format                      : AVC
Format/Info                 : Advanced Video Codec
Format profile              : 
Format settings, CABAC      : Yes
Format settings, RefFrames  : 3 frames
Codec ID                    : avc1
Codec ID/Info               : Advanced Video Coding
Duration                    : 2 h 46 min
Bit rate                    : 948 kb/s
Width                       : 1 280 pixels
Height                      : 720 pixels
Display aspect ratio        : 16:9
Frame rate mode             : Constant
Frame rate                  : 25.000 FPS
Color space                 : YUV
Chroma subsampling          : 4:2:0
Bit depth                   : 8 bits
Scan type                   : Progressive
Bits/(Pixel*Frame)          : 0.041
Stream size                 : 1.11 GiB (88%)
Title                       : ISO Media file produced by Google Inc. Created on: 10/06/2018.
Encoded date                : UTC 2018-10-07 02:07:40
Tagged date                 : UTC 2018-10-07 02:07:40
Color range                 : Limited
Color primaries             : BT.709
Transfer characteristics    : BT.709
Matrix coefficients         : BT.709

Audio
ID                          : 2
Format                      : AAC
Format/Info                 : Advanced Audio Codec
Format profile              : LC
Codec ID                    : 40
Duration                    : 2 h 46 min
Bit rate mode               : Variable
Bit rate                    : 126 kb/s
Channel(s)                  : 2 channels
Channel positions           : Front: L R
Sampling rate               : 44.1 kHz
Frame rate                  : 43.066 FPS (1024 SPF)
Compression mode            : Lossy
Stream size                 : 150 MiB (12%)
Title                       : ISO Media file produced by Google Inc. Created on: 10/06/2018.
Language                    : English
Encoded date                : UTC 2018-10-07 02:07:40
Tagged date                 : UTC 2018-10-07 02:07:40



Khuddar (1994) 720p - HD-DVDRip - AVC - AAC-Bollywooda2z
SINGLE DIRECT FAST LINKS



https://www.heroupload.com/150a8843dc9e2db2/Khuddar.1994.720p-BollywoodA2z.mp4



Khuddar (1994) 720p - HD-DVDRip - AVC - AAC-Bollywooda2z

Raja Babu (1994) 720p - HD-DVDRip - x264 - AAC-Bollywooda2z

Author: wroser on 7-08-2020, 10:44

Raja Babu (1994) 720p - HD-DVDRip - x264 - AAC-Bollywooda2z


Format                      : Matroska
Format version              : Version 4 / Version 2
File size                   : 1.33 GiB
Duration                    : 2 h 24 min
Overall bit rate            : 1 316 kb/s
Encoded date                : UTC 2018-04-24 14:01:37
Writing application         : mkvmerge v21.0.0 ('Tardigrades Will Inherit The Earth') 32-bit
Writing library             : libebml v1.3.5 + libmatroska v1.4.8
Cover                       : Yes
Attachments                 : Cover.jpg

Video
ID                          : 1
Format                      : AVC
Format/Info                 : Advanced Video Codec
Format profile              : 
Format settings, CABAC      : No
Format settings, RefFrames  : 3 frames
Format settings, GOP        : M=1, N=50
Codec ID                    : V_MPEG4/ISO/AVC
Duration                    : 2 h 24 min
Bit rate                    : 1 216 kb/s
Width                       : 1 280 pixels
Height                      : 720 pixels
Display aspect ratio        : 2.25:1
Frame rate mode             : Constant
Frame rate                  : 25.000 FPS
Color space                 : YUV
Chroma subsampling          : 4:2:0
Bit depth                   : 8 bits
Scan type                   : Progressive
Bits/(Pixel*Frame)          : 0.053
Stream size                 : 1.23 GiB (93%)
Writing library             : x264 core 135
Encoding settings           : cabac=0 / ref=3 / deblock=1:0:0 / analyse=0x1:0x111 / me=hex / subme=7 / psy=1 / psy_rd=1.00:0.00 / mixed_ref=1 / me_range=16 / chroma_me=1 / trellis=1 / 8x8dct=0 / cqm=0 / deadzone=21,11 / fast_pskip=1 / chroma_qp_offset=-2 / threads=2 / lookahead_threads=1 / sliced_threads=0 / nr=0 / decimate=1 / interlaced=0 / bluray_compat=0 / constrained_intra=0 / bframes=0 / weightp=0 / keyint=50 / keyint_min=5 / scenecut=40 / intra_refresh=0 / rc_lookahead=40 / rc=abr / mbtree=1 / bitrate=1216 / ratetol=1.0 / qcomp=0.60 / qpmin=0 / qpmax=51 / qpstep=4 / ip_ratio=1.40 / aq=1:1.00
Language                    : Hindi
Default                     : Yes
Forced                      : No

Audio
ID                          : 2
Format                      : AAC
Format/Info                 : Advanced Audio Codec
Format profile              : LC
Codec ID                    : A_AAC
Duration                    : 2 h 24 min
Bit rate                    : 96.0 kb/s
Channel(s)                  : 2 channels
Channel positions           : Front: L R
Sampling rate               : 44.1 kHz
Frame rate                  : 43.066 FPS (1024 SPF)
Compression mode            : Lossy
Delay relative to video     : -36 ms
Stream size                 : 99.3 MiB (7%)
Language                    : Hindi
Default                     : Yes
Forced                      : No



Raja Babu (1994) 720p - HD-DVDRip - x264 - AAC-Bollywooda2z
SINGLE DIRECT FAST LINKS



https://www.heroupload.com/9fad0d334308949c/Raja.Babu.1994.mkv



Raja Babu (1994) 720p - HD-DVDRip - x264 - AAC-Bollywooda2z

Previous Next
Top