Set as default Homepage|Bookmark
 
 
» » Chalo (2018) Telugu - 720p - WEB-HD - AVC - AAC-TMV
Advertise

Chalo (2018) Telugu - 720p - WEB-HD - AVC - AAC-TMV

Author: wroser on 3-08-2018, 00:33
Chalo (2018) Telugu - 720p - WEB-HD - AVC - AAC-TMV




Format                      : Matroska
Format version              : Version 4 / Version 2
File size                   : 2.13 GiB
Duration                    : 2 h 19 min
Overall bit rate            : 2 189 kb/s
Encoded date                : UTC 2018-08-02 04:00:48
Writing application         : mkvmerge v8.2.0 ('World of Adventure') 64bit
Writing library             : libebml v1.3.1 + libmatroska v1.4.2

Video
ID                          : 1
Format                      : AVC
Format/Info                 : Advanced Video Codec
Format profile              : High@L3.1
Format settings, CABAC      : Yes
Format settings, RefFrames  : 4 frames
Codec ID                    : V_MPEG4/ISO/AVC
Duration                    : 2 h 19 min
Bit rate                    : 2 055 kb/s
Width                       : 1 274 pixels
Height                      : 720 pixels
Display aspect ratio        : 16:9
Frame rate mode             : Constant
Frame rate                  : 25.000 FPS
Color space                 : YUV
Chroma subsampling          : 4:2:0
Bit depth                   : 8 bits
Scan type                   : Progressive
Bits/(Pixel*Frame)          : 0.090
Stream size                 : 2.00 GiB (94%)
Writing library             : x264 core 148 r2643 5c65704
Encoding settings           : cabac=1 / ref=1 / deblock=1:0:0 / analyse=0x3:0x3 / me=dia / subme=1 / psy=1 / psy_rd=1.00:0.00 / mixed_ref=0 / me_range=16 / chroma_me=1 / trellis=0 / 8x8dct=1 / cqm=0 / deadzone=21,11 / fast_pskip=1 / chroma_qp_offset=0 / threads=12 / lookahead_threads=2 / sliced_threads=0 / nr=0 / decimate=1 / interlaced=0 / bluray_compat=0 / constrained_intra=0 / bframes=3 / b_pyramid=2 / b_adapt=1 / b_bias=0 / direct=1 / weightb=1 / open_gop=0 / weightp=1 / keyint=250 / keyint_min=25 / scenecut=40 / intra_refresh=0 / rc=abr / mbtree=0 / bitrate=2055 / ratetol=1.0 / qcomp=0.60 / qpmin=0 / qpmax=69 / qpstep=4 / ip_ratio=1.40 / pb_ratio=1.30 / aq=1:1.00
Language                    : Telugu
Default                     : Yes
Forced                      : No

Audio
ID                          : 2
Format                      : AAC
Format/Info                 : Advanced Audio Codec
Format profile              : LC
Codec ID                    : A_AAC
Duration                    : 2 h 19 min
Bit rate                    : 128 kb/s
Channel(s)                  : 2 channels
Channel positions           : Front: L R
Sampling rate               : 44.1 kHz
Frame rate                  : 43.066 FPS (1024 SPF)
Compression mode            : Lossy
Delay relative to video     : -46 ms
Stream size                 : 127 MiB (6%)
Language                    : Telugu
Default                     : Yes
Forced                      : No



Chalo (2018) Telugu - 720p - WEB-HD - AVC - AAC-TMVChalo (2018) Telugu - 720p - WEB-HD - AVC - AAC-TMVChalo (2018) Telugu - 720p - WEB-HD - AVC - AAC-TMVChalo (2018) Telugu - 720p - WEB-HD - AVC - AAC-TMVChalo (2018) Telugu - 720p - WEB-HD - AVC - AAC-TMVChalo (2018) Telugu - 720p - WEB-HD - AVC - AAC-TMVChalo (2018) Telugu - 720p - WEB-HD - AVC - AAC-TMVChalo (2018) Telugu - 720p - WEB-HD - AVC - AAC-TMV


SINGLE DIRECT FAST LINKS
http://www.heroupload.us/79a206499295755a/Chalo.2018.Telugu.WEB-HD.720p.AVC.AAC-TMV.mkv


http://filefloater.com/U1g/Chalo.2018.Telugu.WEB-HD.720p.AVC.AAC-TMV.mkv

700MB LINKS

http://www.heroupload.us/d0a4ec36f3d078a6/Chalo.2018.Telugu.WEB-HD.720p.AVC.AAC-TMV.part1.rar
http://www.heroupload.us/9a0621b46f27b276/Chalo.2018.Telugu.WEB-HD.720p.AVC.AAC-TMV.part2.rar
http://www.heroupload.us/a72710d27e44d28c/Chalo.2018.Telugu.WEB-HD.720p.AVC.AAC-TMV.part3.rar
http://www.heroupload.us/ee466fe76c91f83e/Chalo.2018.Telugu.WEB-HD.720p.AVC.AAC-TMV.part4.rar



http://filefloater.com/U1h/Chalo.2018.Telugu.WEB-HD.720p.AVC.AAC-TMV.part1.rar
http://filefloater.com/U1i/Chalo.2018.Telugu.WEB-HD.720p.AVC.AAC-TMV.part2.rar
http://filefloater.com/U1j/Chalo.2018.Telugu.WEB-HD.720p.AVC.AAC-TMV.part3.rar
http://filefloater.com/U1k/Chalo.2018.Telugu.WEB-HD.720p.AVC.AAC-TMV.part4.rar


Buy Premium From My Links & Support Me

Теги: Chalo

Dear visitor, you are browsing our website as Guest.
We strongly recommend you to register and login to view hidden contents.

Comments:

Add Comments