Set as default Homepage|Bookmark
 
 
» » Krishnarjuna Yudham (2018) Telugu - 1080p - WEB-HD - AVC - AAC - Esubs-TMV
Advertise

Krishnarjuna Yudham (2018) Telugu - 1080p - WEB-HD - AVC - AAC - Esubs-TMV

Author: wroser on 26-05-2018, 01:11
Krishnarjuna Yudham (2018) Telugu - 1080p - WEB-HD - AVC - AAC - Esubs-TMV





General
Format                      : Matroska
Format version              : Version 4 / Version 2
File size                   : 3.35 GiB
Duration                    : 2 h 33 min
Overall bit rate            : 3 130 kb/s
Encoded date                : UTC 2018-05-25 02:38:03
Writing application         : mkvmerge v7.1.0 ('Good Love') 32bit built on Jul 27 2014 12:59:18
Writing library             : libebml v1.3.0 + libmatroska v1.4.1

Video
ID                          : 1
Format                      : AVC
Format/Info                 : Advanced Video Codec
Format profile              : Main@L4.1
Format settings, CABAC      : Yes
Format settings, RefFrames  : 2 frames
Format settings, GOP        : M=3, N=25
Codec ID                    : V_MPEG4/ISO/AVC
Duration                    : 2 h 33 min
Bit rate                    : 2 999 kb/s
Width                       : 1 920 pixels
Height                      : 1 080 pixels
Display aspect ratio        : 16:9
Frame rate mode             : Constant
Frame rate                  : 30.000 FPS
Color space                 : YUV
Chroma subsampling          : 4:2:0
Bit depth                   : 8 bits
Scan type                   : Progressive
Bits/(Pixel*Frame)          : 0.048
Stream size                 : 3.21 GiB (96%)
Language                    : Telugu
Default                     : Yes
Forced                      : No

Audio
ID                          : 2
Format                      : AAC
Format/Info                 : Advanced Audio Codec
Format profile              : LC
Codec ID                    : A_AAC
Duration                    : 2 h 33 min
Bit rate                    : 128 kb/s
Channel(s)                  : 2 channels
Channel positions           : Front: L R
Sampling rate               : 44.1 kHz
Frame rate                  : 43.066 FPS (1024 SPF)
Compression mode            : Lossy
Delay relative to video     : -67 ms
Stream size                 : 140 MiB (4%)
Language                    : Telugu
Default                     : Yes
Forced                      : No

Text
ID                          : 3
Format                      : UTF-8
Codec ID                    : S_TEXT/UTF8
Codec ID/Info               : UTF-8 Plain Text
Duration                    : 2 h 33 min
Bit rate                    : 66 b/s
Count of elements           : 2029
Stream size                 : 75.2 KiB (0%)
Language                    : English
Default                     : Yes
Forced                      : No




Krishnarjuna Yudham (2018) Telugu - 1080p - WEB-HD - AVC - AAC - Esubs-TMVKrishnarjuna Yudham (2018) Telugu - 1080p - WEB-HD - AVC - AAC - Esubs-TMVKrishnarjuna Yudham (2018) Telugu - 1080p - WEB-HD - AVC - AAC - Esubs-TMVKrishnarjuna Yudham (2018) Telugu - 1080p - WEB-HD - AVC - AAC - Esubs-TMVKrishnarjuna Yudham (2018) Telugu - 1080p - WEB-HD - AVC - AAC - Esubs-TMV



SINGLE DIRECT FAST LINKS
http://www.heroupload.us/c1eecafc673da30d/Krishnarjuna.Yuddham.2018.Telugu.True.WEB-HD.1080p.ESub-TMV.mkv


http://filefloater.com/Td9/Krishnarjuna.Yuddham.2018.Telugu.True.WEB-HD.1080p.ESub-TMV.mkv

700MB LINKS

http://www.heroupload.us/2e57be1c079f2513/Krishnarjuna.Yuddham.2018.Telugu.True.WEB-HD.1080p.ESub-TMV.part1.rar
http://www.heroupload.us/f6f196b16d4f629f/Krishnarjuna.Yuddham.2018.Telugu.True.WEB-HD.1080p.ESub-TMV.part2.rar
http://www.heroupload.us/0d43015bd569868f/Krishnarjuna.Yuddham.2018.Telugu.True.WEB-HD.1080p.ESub-TMV.part3.rar
http://www.heroupload.us/e9d1db02edb57377/Krishnarjuna.Yuddham.2018.Telugu.True.WEB-HD.1080p.ESub-TMV.part4.rar
http://www.heroupload.us/96200b399362aa67/Krishnarjuna.Yuddham.2018.Telugu.True.WEB-HD.1080p.ESub-TMV.part5.rar



http://filefloater.com/Tda/Krishnarjuna.Yuddham.2018.Telugu.True.WEB-HD.1080p.ESub-TMV.part1.rar
http://filefloater.com/Tdb/Krishnarjuna.Yuddham.2018.Telugu.True.WEB-HD.1080p.ESub-TMV.part2.rar
http://filefloater.com/Tdc/Krishnarjuna.Yuddham.2018.Telugu.True.WEB-HD.1080p.ESub-TMV.part3.rar
http://filefloater.com/Tdd/Krishnarjuna.Yuddham.2018.Telugu.True.WEB-HD.1080p.ESub-TMV.part4.rar
http://filefloater.com/Tde/Krishnarjuna.Yuddham.2018.Telugu.True.WEB-HD.1080p.ESub-TMV.part5.rar







Теги: Krishnarjuna

Dear visitor, you are browsing our website as Guest.
We strongly recommend you to register and login to view hidden contents.

Comments:

Add Comments
Reply
  • Group: Members
  • ICQ:
  • Registration: 22.03.2018
  • Status: Currently Offline
  • 141 Comment
  • 0 Article
^
Download from mirror:

http://thescenebox.com/444162c048d936as/