Set as default Homepage|Bookmark
 
 
» » Intelligent (2018) Telugu - 1080p - PreDVD - x264 - MP3-TMV
Advertise

Intelligent (2018) Telugu - 1080p - PreDVD - x264 - MP3-TMV

Author: wroser on 9-02-2018, 19:57
Intelligent (2018) Telugu - 1080p - PreDVD - x264 - MP3-TMV







General
Format                      : Matroska
Format version              : Version 4 / Version 2
File size                   : 2.33 GiB
Duration                    : 2 h 2 min
Overall bit rate            : 2 726 kb/s
Encoded date                : UTC 2018-02-09 12:08:21
Writing application         : mkvmerge v7.1.0 ('Good Love') 32bit built on Jul 27 2014 12:59:18
Writing library             : libebml v1.3.0 + libmatroska v1.4.1

Video
ID                          : 1
Format                      : AVC
Format/Info                 : Advanced Video Codec
Format profile              : High@L4
Format settings, CABAC      : Yes
Format settings, RefFrames  : 4 frames
Codec ID                    : V_MPEG4/ISO/AVC
Duration                    : 2 h 2 min
Bit rate                    : 2 596 kb/s
Width                       : 1 920 pixels
Height                      : 816 pixels
Display aspect ratio        : 2.35:1
Frame rate mode             : Constant
Frame rate                  : 24.000 FPS
Color space                 : YUV
Chroma subsampling          : 4:2:0
Bit depth                   : 8 bits
Scan type                   : Progressive
Bits/(Pixel*Frame)          : 0.069
Stream size                 : 2.22 GiB (95%)
Writing library             : x264 core 152 r2851 ba24899
Encoding settings           : cabac=1 / ref=3 / deblock=1:0:0 / analyse=0x3:0x113 / me=hex / subme=7 / psy=1 / psy_rd=1.00:0.00 / mixed_ref=1 / me_range=16 / chroma_me=1 / trellis=1 / 8x8dct=1 / cqm=0 / deadzone=21,11 / fast_pskip=1 / chroma_qp_offset=-2 / threads=25 / lookahead_threads=4 / sliced_threads=0 / nr=0 / decimate=1 / interlaced=0 / bluray_compat=0 / constrained_intra=0 / bframes=3 / b_pyramid=2 / b_adapt=1 / b_bias=0 / direct=1 / weightb=1 / open_gop=0 / weightp=2 / keyint=240 / keyint_min=24 / scenecut=40 / intra_refresh=0 / rc_lookahead=40 / rc=2pass / mbtree=1 / bitrate=2596 / ratetol=1.0 / qcomp=0.60 / qpmin=0 / qpmax=69 / qpstep=4 / cplxblur=20.0 / qblur=0.5 / ip_ratio=1.40 / aq=1:1.00
Language                    : Telugu
Default                     : Yes
Forced                      : No

Audio
ID                          : 2
Format                      : MPEG Audio
Format version              : Version 1
Format profile              : Layer 3
Mode                        : Joint stereo
Mode extension              : MS Stereo
Codec ID                    : A_MPEG/L3
Codec ID/Hint               : MP3
Duration                    : 2 h 2 min
Bit rate mode               : Constant
Bit rate                    : 128 kb/s
Channel(s)                  : 2 channels
Sampling rate               : 32.0 kHz
Frame rate                  : 27.778 FPS (1152 SPF)
Compression mode            : Lossy
Stream size                 : 112 MiB (5%)
Writing library             : LAME3.100 
Language                    : Tamil
Default                     : Yes
Forced                      : No



Intelligent (2018) Telugu - 1080p - PreDVD - x264 - MP3-TMVIntelligent (2018) Telugu - 1080p - PreDVD - x264 - MP3-TMVIntelligent (2018) Telugu - 1080p - PreDVD - x264 - MP3-TMVIntelligent (2018) Telugu - 1080p - PreDVD - x264 - MP3-TMVIntelligent (2018) Telugu - 1080p - PreDVD - x264 - MP3-TMVIntelligent (2018) Telugu - 1080p - PreDVD - x264 - MP3-TMV


SINGLE DIRECT FAST LINKS
http://filefloater.com/72b/Intelligent.2018.Telugu.PreDVD.1080p.x264-TMV.mkv


https://www.heroupload.com/98aae9063a86e586/Intelligent.2018.Telugu.PreDVD.1080p.x264-TMV.mkv


700MB LINKS
http://filefloater.com/4r0/Intelligent.2018.Telugu.PreDVD.1080p.x264-TMV.part1.rar
http://filefloater.com/4r1/Intelligent.2018.Telugu.PreDVD.1080p.x264-TMV.part2.rar
http://filefloater.com/4r2/Intelligent.2018.Telugu.PreDVD.1080p.x264-TMV.part3.rar
http://filefloater.com/4r3/Intelligent.2018.Telugu.PreDVD.1080p.x264-TMV.part4.rar


https://www.heroupload.com/88b6c51891e7c547/Intelligent.2018.Telugu.PreDVD.1080p.x264-TMV.part1.rar
https://www.heroupload.com/5e29d5a80214f429/Intelligent.2018.Telugu.PreDVD.1080p.x264-TMV.part2.rar
https://www.heroupload.com/143c6f857b8cf891/Intelligent.2018.Telugu.PreDVD.1080p.x264-TMV.part3.rar
https://www.heroupload.com/a8b731be618f2380/Intelligent.2018.Telugu.PreDVD.1080p.x264-TMV.part4.rar



Теги: Intelligent

Dear visitor, you are browsing our website as Guest.
We strongly recommend you to register and login to view hidden contents.

Comments:

Add Comments