Set as default Homepage|Bookmark
 
 
» » MCA Middle Class Abbayi (2017) Telugu - 700MB - 1CDRip - HDRip - XviD - MP3 -ESub-TMV
Advertise

MCA Middle Class Abbayi (2017) Telugu - 700MB - 1CDRip - HDRip - XviD - MP3 -ESub-TMV

Author: wroser on 19-01-2018, 04:18
MCA Middle Class Abbayi (2017) Telugu - 700MB - 1CDRip - HDRip - XviD - MP3 -ESub-TMV





General
Format                      : AVI
Format/Info                 : Audio Video Interleave
File size                   : 701 MiB
Duration                    : 2 h 18 min
Overall bit rate mode       : Variable
Overall bit rate            : 710 kb/s

Video
ID                          : 0
Format                      : MPEG-4 Visual
Format profile              : Advanced Simple@L5
Format settings, BVOP       : 2
Format settings, QPel       : No
Format settings, GMC        : No warppoints
Format settings, Matrix     : Default (H.263)
Codec ID                    : XVID
Codec ID/Hint               : XviD
Duration                    : 2 h 18 min
Bit rate                    : 601 kb/s
Width                       : 704 pixels
Height                      : 296 pixels
Display aspect ratio        : 2.40:1
Frame rate                  : 28.709 FPS
Color space                 : YUV
Chroma subsampling          : 4:2:0
Bit depth                   : 8 bits
Scan type                   : Progressive
Compression mode            : Lossy
Bits/(Pixel*Frame)          : 0.101
Stream size                 : 594 MiB (85%)
Writing library             : XviD 67

Audio
ID                          : 1
Format                      : MPEG Audio
Format version              : Version 1
Format profile              : Layer 3
Mode                        : Joint stereo
Mode extension              : MS Stereo
Codec ID                    : 55
Codec ID/Hint               : MP3
Duration                    : 2 h 18 min
Bit rate mode               : Variable
Bit rate                    : 96.0 kb/s
Channel(s)                  : 2 channels
Sampling rate               : 44.1 kHz
Compression mode            : Lossy
Stream size                 : 93.9 MiB (13%)
Alignment                   : Aligned on interleaves
Interleave, duration        : 26  ms (0.75 video frame)
Interleave, preload duratio : 144  ms
Writing library             : LAME3.99r
Encoding settings           : -m j -V 4 -q 3 -lowpass 15.1 --abr 96




MCA Middle Class Abbayi (2017) Telugu - 700MB - 1CDRip - HDRip - XviD - MP3 -ESub-TMVMCA Middle Class Abbayi (2017) Telugu - 700MB - 1CDRip - HDRip - XviD - MP3 -ESub-TMVMCA Middle Class Abbayi (2017) Telugu - 700MB - 1CDRip - HDRip - XviD - MP3 -ESub-TMVMCA Middle Class Abbayi (2017) Telugu - 700MB - 1CDRip - HDRip - XviD - MP3 -ESub-TMVMCA Middle Class Abbayi (2017) Telugu - 700MB - 1CDRip - HDRip - XviD - MP3 -ESub-TMVMCA Middle Class Abbayi (2017) Telugu - 700MB - 1CDRip - HDRip - XviD - MP3 -ESub-TMV


SINGLE DIRECT FAST LINKS


https://www.heroupload.com/20cea8b69915ab7f/MCA.Middle.Class.Abbayi.2017.Telugu.HDRip.XviD.700MB.MP3-TMV.avi
https://www.heroupload.com/79633dc2a00544cf/MCA.Middle.Class.Abbayi.2017.Telugu.HDRip.XviD.700MB.MP3-TMV.srt


http://filefloater.com/9sq/MCA.Middle.Class.Abbayi.2017.Telugu.HDRip.XviD.700MB.MP3-TMV.avi
http://filefloater.com/9sr/MCA.Middle.Class.Abbayi.2017.Telugu.HDRip.XviD.700MB.MP3-TMV.srt



Теги: MCA

Dear visitor, you are browsing our website as Guest.
We strongly recommend you to register and login to view hidden contents.

Comments:

Add Comments
Reply
  • Group: Guests
  • ICQ:
  • Registration: --
  • Status:
  • 0 Comment
  • 0 Article
^
Synopsis: The family drama chronicles the life of a young man, played by Nani, hailing from a middle-class family, who is willing to do absolutely anything for his family. Atrocious film. Full of clichés. Voyance par téléphone gratuite.