Set as default Homepage|Bookmark
 
 
» » DJ Duvvada Jagannadham (2017) Telugu (Original) - 720p - WEB-HD - AVC - AAC-TMV
Advertise

DJ Duvvada Jagannadham (2017) Telugu (Original) - 720p - WEB-HD - AVC - AAC-TMV

Author: wroser on 21-12-2017, 21:31
DJ Duvvada Jagannadham (2017) Telugu (Original) - 720p - WEB-HD - AVC - AAC-TMV





General
Format                      : MPEG-4
Format profile              : Base Media / Version 2
Codec ID                    : mp42 (isom/mp42)
File size                   : 1.66 GiB
Duration                    : 2 h 26 min
Overall bit rate mode       : Variable
Overall bit rate            : 1 618 kb/s
Encoded date                : UTC 2017-12-21 15:03:58
Tagged date                 : UTC 2017-12-21 15:03:58
gsst                        : 0
gstd                        : 8815316

Video
ID                          : 1
Format                      : AVC
Format/Info                 : Advanced Video Codec
Format profile              : Main@L3.1
Format settings, CABAC      : Yes
Format settings, RefFrames  : 3 frames
Codec ID                    : avc1
Codec ID/Info               : Advanced Video Coding
Duration                    : 2 h 26 min
Bit rate                    : 1 489 kb/s
Width                       : 1 280 pixels
Height                      : 720 pixels
Display aspect ratio        : 16:9
Frame rate mode             : Constant
Frame rate                  : 24.000 FPS
Color space                 : YUV
Chroma subsampling          : 4:2:0
Bit depth                   : 8 bits
Scan type                   : Progressive
Bits/(Pixel*Frame)          : 0.067
Stream size                 : 1.53 GiB (92%)
Title                       : ISO Media file produced by Google Inc. Created on: 12/21/2017.
Encoded date                : UTC 2017-12-21 15:03:58
Tagged date                 : UTC 2017-12-21 15:03:58
Color range                 : Limited
Color primaries             : BT.709
Transfer characteristics    : BT.709
Matrix coefficients         : BT.709

Audio
ID                          : 2
Format                      : AAC
Format/Info                 : Advanced Audio Codec
Format profile              : LC
Codec ID                    : 40
Duration                    : 2 h 26 min
Source duration             : 2 h 26 min
Bit rate mode               : Variable
Bit rate                    : 126 kb/s
Channel(s)                  : 2 channels
Channel positions           : Front: L R
Sampling rate               : 44.1 kHz
Frame rate                  : 43.066 FPS (1024 SPF)
Compression mode            : Lossy
Stream size                 : 132 MiB (8%)
Source stream size          : 132 MiB (8%)
Title                       : ISO Media file produced by Google Inc. Created on: 12/21/2017.
Encoded date                : UTC 2017-12-21 15:03:58
Tagged date                 : UTC 2017-12-21 15:03:58


DJ Duvvada Jagannadham (2017) Telugu (Original) - 720p - WEB-HD - AVC - AAC-TMVDJ Duvvada Jagannadham (2017) Telugu (Original) - 720p - WEB-HD - AVC - AAC-TMVDJ Duvvada Jagannadham (2017) Telugu (Original) - 720p - WEB-HD - AVC - AAC-TMVDJ Duvvada Jagannadham (2017) Telugu (Original) - 720p - WEB-HD - AVC - AAC-TMV


SINGLE DIRECT FAST LINKS


https://www.heroupload.com/1fee3e14592c271f/DJ.Duvvada.Jagannadham.2017.Telugu.Original.WEB-HD.720p.AVC.AAC-TMV.mp4




Теги: DJ

Dear visitor, you are browsing our website as Guest.
We strongly recommend you to register and login to view hidden contents.

Comments:

Add Comments