Set as default Homepage|Bookmark
 
 
» » Naa Peru Surya Na Illu (2018) Telugu - 720p - WEB-HD - AVC - AAC-Team IcTv Exclusive
Advertise

Naa Peru Surya Na Illu (2018) Telugu - 720p - WEB-HD - AVC - AAC-Team IcTv Exclusive

Author: wroser on 5-09-2018, 21:47
Naa Peru Surya Na Illu (2018) Telugu - 720p - WEB-HD - AVC - AAC-Team IcTv Exclusive





Format                      : MPEG-4
Format profile              : Base Media
Codec ID                    : isom (isom/iso2/avc1/mp41)
File size                   : 2.79 GiB
Duration                    : 2 h 36 min
Overall bit rate            : 2 549 kb/s
Writing application         : Lavf57.75.100

Video
ID                          : 1
Format                      : AVC
Format/Info                 : Advanced Video Codec
Format profile              : High@L3.1
Format settings, CABAC      : Yes
Format settings, RefFrames  : 4 frames
Codec ID                    : avc1
Codec ID/Info               : Advanced Video Coding
Duration                    : 2 h 36 min
Bit rate                    : 2 500 kb/s
Width                       : 1 280 pixels
Height                      : 720 pixels
Display aspect ratio        : 16:9
Frame rate mode             : Constant
Frame rate                  : 25.000 FPS
Color space                 : YUV
Chroma subsampling          : 4:2:0
Bit depth                   : 8 bits
Scan type                   : Progressive
Bits/(Pixel*Frame)          : 0.109
Stream size                 : 2.72 GiB (97%)
Writing library             : x264 core 152 r2854 e9a5903
Encoding settings           : cabac=1 / ref=3 / deblock=1:0:0 / analyse=0x3:0x113 / me=hex / subme=7 / psy=1 / psy_rd=1.00:0.00 / mixed_ref=1 / me_range=16 / chroma_me=1 / trellis=1 / 8x8dct=1 / cqm=0 / deadzone=21,11 / fast_pskip=1 / chroma_qp_offset=-2 / threads=22 / lookahead_threads=3 / sliced_threads=0 / nr=0 / decimate=1 / interlaced=0 / bluray_compat=0 / constrained_intra=0 / bframes=3 / b_pyramid=2 / b_adapt=1 / b_bias=0 / direct=1 / weightb=1 / open_gop=0 / weightp=2 / keyint=50 / keyint_min=26 / scenecut=0 / intra_refresh=0 / rc_lookahead=40 / rc=abr / mbtree=1 / bitrate=2500 / ratetol=1.0 / qcomp=0.60 / qpmin=0 / qpmax=69 / qpstep=4 / ip_ratio=1.40 / aq=1:1.00

Audio
ID                          : 2
Format                      : AAC
Format/Info                 : Advanced Audio Codec
Format profile              : LC
Codec ID                    : 40
Duration                    : 2 h 36 min
Bit rate mode               : Constant
Bit rate                    : 63.5 kb/s
Channel(s)                  : 2 channels
Channel positions           : Front: L R
Sampling rate               : 48.0 kHz
Frame rate                  : 46.875 FPS (1024 SPF)
Compression mode            : Lossy
Stream size                 : 71.2 MiB (2%)
Default                     : Yes
Alternate group             : 1




Naa Peru Surya Na Illu (2018) Telugu - 720p - WEB-HD - AVC - AAC-Team IcTv ExclusiveNaa Peru Surya Na Illu (2018) Telugu - 720p - WEB-HD - AVC - AAC-Team IcTv ExclusiveNaa Peru Surya Na Illu (2018) Telugu - 720p - WEB-HD - AVC - AAC-Team IcTv ExclusiveNaa Peru Surya Na Illu (2018) Telugu - 720p - WEB-HD - AVC - AAC-Team IcTv ExclusiveNaa Peru Surya Na Illu (2018) Telugu - 720p - WEB-HD - AVC - AAC-Team IcTv Exclusive

SINGLE DIRECT FAST LINKS
http://www.heroupload.us/37930b6efd175ccf/Naa.Peru.Surya.Na.Illu.2018.720p.UntoucheD.WEB-HD.TELUGU.AVC.AAC-Team.IcTv.Exclusive.mp4


http://filefloater.com/2AGg/Naa.Peru.Surya.Na.Illu.2018.720p.UntoucheD.WEB-HD.TELUGU.AVC.AAC-Team.IcTv.Exclusive.mp4

700MB LINKS

http://www.heroupload.us/6ee5c431f9d8c8f3/Naa.Peru.Surya.Na.Illu.2018.720p.UntoucheD.WEB-HD.TELUGU.AVC.AAC-Team.IcTv.Exclusive.part1.rar
http://www.heroupload.us/850434f03820ba02/Naa.Peru.Surya.Na.Illu.2018.720p.UntoucheD.WEB-HD.TELUGU.AVC.AAC-Team.IcTv.Exclusive.part2.rar
http://www.heroupload.us/0237270ae14279cd/Naa.Peru.Surya.Na.Illu.2018.720p.UntoucheD.WEB-HD.TELUGU.AVC.AAC-Team.IcTv.Exclusive.part3.rar
http://www.heroupload.us/672793fcfa1dc1b4/Naa.Peru.Surya.Na.Illu.2018.720p.UntoucheD.WEB-HD.TELUGU.AVC.AAC-Team.IcTv.Exclusive.part4.rar
http://www.heroupload.us/2d34fb92be4ef9e1/Naa.Peru.Surya.Na.Illu.2018.720p.UntoucheD.WEB-HD.TELUGU.AVC.AAC-Team.IcTv.Exclusive.part5.rar



http://filefloater.com/2AGh/Naa.Peru.Surya.Na.Illu.2018.720p.UntoucheD.WEB-HD.TELUGU.AVC.AAC-Team.IcTv.Exclusive.part1.rar
http://filefloater.com/2AGi/Naa.Peru.Surya.Na.Illu.2018.720p.UntoucheD.WEB-HD.TELUGU.AVC.AAC-Team.IcTv.Exclusive.part2.rar
http://filefloater.com/2AGj/Naa.Peru.Surya.Na.Illu.2018.720p.UntoucheD.WEB-HD.TELUGU.AVC.AAC-Team.IcTv.Exclusive.part3.rar
http://filefloater.com/2AGk/Naa.Peru.Surya.Na.Illu.2018.720p.UntoucheD.WEB-HD.TELUGU.AVC.AAC-Team.IcTv.Exclusive.part4.rar
http://filefloater.com/2AGl/Naa.Peru.Surya.Na.Illu.2018.720p.UntoucheD.WEB-HD.TELUGU.AVC.AAC-Team.IcTv.Exclusive.part5.rar


Buy Premium From My Links & Support Me

Теги: Naa

Dear visitor, you are browsing our website as Guest.
We strongly recommend you to register and login to view hidden contents.

Comments:

Add Comments