Set as default Homepage|Bookmark
 
 
» » Naa Nuvve (2018) Telugu - 720p - HDTV - UNTOUCHED - AVC - AAC-TMV
Advertise

Naa Nuvve (2018) Telugu - 720p - HDTV - UNTOUCHED - AVC - AAC-TMV

Author: wroser on 15-08-2018, 20:38
Naa Nuvve (2018) Telugu - 720p - HDTV - UNTOUCHED - AVC - AAC-TMV





Format                      : MPEG-4
Format profile              : Base Media
Codec ID                    : isom (isom/iso2/avc1/mp41)
File size                   : 2.08 GiB
Duration                    : 1 h 55 min
Overall bit rate mode       : Constant
Overall bit rate            : 2 582 kb/s
Writing application         : Lavf55.19.104

Video
ID                          : 1
Format                      : AVC
Format/Info                 : Advanced Video Codec
Format profile              : Baseline@L3.1
Format settings, CABAC      : No
Format settings, RefFrames  : 1 frame
Codec ID                    : avc1
Codec ID/Info               : Advanced Video Coding
Duration                    : 1 h 55 min
Bit rate mode               : Constant
Bit rate                    : 2 560 kb/s
Width                       : 1 280 pixels
Height                      : 720 pixels
Display aspect ratio        : 16:9
Frame rate mode             : Constant
Frame rate                  : 25.000 FPS
Color space                 : YUV
Chroma subsampling          : 4:2:0
Bit depth                   : 8 bits
Scan type                   : Progressive
Bits/(Pixel*Frame)          : 0.111
Stream size                 : 2.05 GiB (99%)

Audio
ID                          : 2
Format                      : AAC
Format/Info                 : Advanced Audio Codec
Format profile              : LC
Codec ID                    : 40
Duration                    : 1 h 55 min
Bit rate mode               : Constant
Bit rate                    : 30.8 kb/s
Channel(s)                  : 2 channels
Channel positions           : Front: L R
Sampling rate               : 22.05 kHz
Frame rate                  : 21.533 FPS (1024 SPF)
Compression mode            : Lossy
Stream size                 : 25.4 MiB (1%)
Default                     : Yes
Alternate group             : 1



Naa Nuvve (2018) Telugu - 720p - HDTV - UNTOUCHED - AVC - AAC-TMVNaa Nuvve (2018) Telugu - 720p - HDTV - UNTOUCHED - AVC - AAC-TMVNaa Nuvve (2018) Telugu - 720p - HDTV - UNTOUCHED - AVC - AAC-TMVNaa Nuvve (2018) Telugu - 720p - HDTV - UNTOUCHED - AVC - AAC-TMVNaa Nuvve (2018) Telugu - 720p - HDTV - UNTOUCHED - AVC - AAC-TMVNaa Nuvve (2018) Telugu - 720p - HDTV - UNTOUCHED - AVC - AAC-TMV

SINGLE DIRECT FAST LINKS
http://www.heroupload.us/447d4bf40908bcaa/Naa.Nuvve.2018.Telugu.True.HDTV.720p.UNTOUCHED.AVC.AAC-TMV.mp4


http://filefloater.com/Ugq/Naa.Nuvve.2018.Telugu.True.HDTV.720p.UNTOUCHED.AVC.AAC-TMV.mp4

700MB LINKS

http://www.heroupload.us/dc72a56edc29949a/Naa.Nuvve.2018.Telugu.True.HDTV.720p.UNTOUCHED.AVC.AAC-TMV.part1.rar
http://www.heroupload.us/b385f541922a1f0e/Naa.Nuvve.2018.Telugu.True.HDTV.720p.UNTOUCHED.AVC.AAC-TMV.part2.rar
http://www.heroupload.us/b12ab9c73a636fcf/Naa.Nuvve.2018.Telugu.True.HDTV.720p.UNTOUCHED.AVC.AAC-TMV.part3.rar
http://www.heroupload.us/a6f82b16e1fa88ff/Naa.Nuvve.2018.Telugu.True.HDTV.720p.UNTOUCHED.AVC.AAC-TMV.part4.rar



http://filefloater.com/Ugr/Naa.Nuvve.2018.Telugu.True.HDTV.720p.UNTOUCHED.AVC.AAC-TMV.part1.rar
http://filefloater.com/Ugs/Naa.Nuvve.2018.Telugu.True.HDTV.720p.UNTOUCHED.AVC.AAC-TMV.part2.rar
http://filefloater.com/Ugt/Naa.Nuvve.2018.Telugu.True.HDTV.720p.UNTOUCHED.AVC.AAC-TMV.part3.rar
http://filefloater.com/Ugu/Naa.Nuvve.2018.Telugu.True.HDTV.720p.UNTOUCHED.AVC.AAC-TMV.part4.rar


Buy Premium From My Links & Support Me

Теги: Naa

Dear visitor, you are browsing our website as Guest.
We strongly recommend you to register and login to view hidden contents.

Comments:

Add Comments