Set as default Homepage|Bookmark
 
 
» » Naa Nuvve (2018) Telugu - 700MB - 1CDRip - HDTV-Rip - XviD - MP3-TMV
Advertise

Naa Nuvve (2018) Telugu - 700MB - 1CDRip - HDTV-Rip - XviD - MP3-TMV

Author: wroser on 15-08-2018, 20:34
Naa Nuvve (2018) Telugu - 700MB - 1CDRip - HDTV-Rip - XviD - MP3-TMV




Format                      : AVI
Format/Info                 : Audio Video Interleave
File size                   : 704 MiB
Duration                    : 1 h 55 min
Overall bit rate mode       : Variable
Overall bit rate            : 854 kb/s

Video
ID                          : 0
Format                      : MPEG-4 Visual
Format profile              : Advanced Simple@L5
Format settings, BVOP       : 2
Format settings, QPel       : No
Format settings, GMC        : No warppoints
Format settings, Matrix     : Default (H.263)
Codec ID                    : XVID
Codec ID/Hint               : XviD
Duration                    : 1 h 55 min
Bit rate                    : 750 kb/s
Width                       : 720 pixels
Height                      : 304 pixels
Display aspect ratio        : 2.35:1
Frame rate                  : 25.000 FPS
Color space                 : YUV
Chroma subsampling          : 4:2:0
Bit depth                   : 8 bits
Scan type                   : Progressive
Compression mode            : Lossy
Bits/(Pixel*Frame)          : 0.137
Stream size                 : 618 MiB (88%)
Writing library             : XviD 67

Audio
ID                          : 1
Format                      : MPEG Audio
Format version              : Version 1
Format profile              : Layer 3
Mode                        : Joint stereo
Mode extension              : MS Stereo
Codec ID                    : 55
Codec ID/Hint               : MP3
Duration                    : 1 h 55 min
Bit rate mode               : Variable
Bit rate                    : 96.0 kb/s
Channel(s)                  : 2 channels
Sampling rate               : 44.1 kHz
Compression mode            : Lossy
Stream size                 : 75.9 MiB (11%)
Alignment                   : Aligned on interleaves
Interleave, duration        : 26  ms (0.65 video frame)
Interleave, preload duratio : 90  ms
Writing library             : LAME3.99r
Encoding settings           : -m j -V 4 -q 3 -lowpass 15.1 --abr 96




Naa Nuvve (2018) Telugu - 700MB - 1CDRip - HDTV-Rip - XviD - MP3-TMVNaa Nuvve (2018) Telugu - 700MB - 1CDRip - HDTV-Rip - XviD - MP3-TMVNaa Nuvve (2018) Telugu - 700MB - 1CDRip - HDTV-Rip - XviD - MP3-TMV


SINGLE DIRECT FAST LINKS

http://www.heroupload.us/26774d54ee51d087/Naa.Nuvve.2018.Telugu.True.HDTV-Rip.XviD.700MB.MP3-TMV.avi



http://filefloater.com/Ugv/Naa.Nuvve.2018.Telugu.True.HDTV-Rip.XviD.700MB.MP3-TMV.avi


Buy Premium From My Links & Support Me

Теги: Naa

Dear visitor, you are browsing our website as Guest.
We strongly recommend you to register and login to view hidden contents.

Comments:

Add Comments