Set as default Homepage|Bookmark
 
 
» » Andhra Mess (2018) Tamil - 720p - HDRip - x264 - DD5.1-TMV
Advertise

Andhra Mess (2018) Tamil - 720p - HDRip - x264 - DD5.1-TMV

Author: wroser on 21-07-2018, 09:38
Andhra Mess (2018) Tamil - 720p - HDRip - x264 - DD5.1-TMV





Format                      : Matroska
Format version              : Version 4 / Version 2
File size                   : 1 001 MiB
Duration                    : 1 h 37 min
Overall bit rate            : 1 428 kb/s
Encoded date                : UTC 2018-07-20 14:39:52
Writing application         : mkvmerge v7.1.0 ('Good Love') 32bit built on Jul 27 2014 12:59:18
Writing library             : libebml v1.3.0 + libmatroska v1.4.1

Video
ID                          : 1
Format                      : AVC
Format/Info                 : Advanced Video Codec
Format profile              : High@L3.1
Format settings, CABAC      : Yes
Format settings, RefFrames  : 4 frames
Codec ID                    : V_MPEG4/ISO/AVC
Duration                    : 1 h 37 min
Bit rate                    : 1 298 kb/s
Width                       : 1 280 pixels
Height                      : 544 pixels
Display aspect ratio        : 2.35:1
Frame rate mode             : Constant
Frame rate                  : 29.970 (30000/1001) FPS
Color space                 : YUV
Chroma subsampling          : 4:2:0
Bit depth                   : 8 bits
Scan type                   : Progressive
Bits/(Pixel*Frame)          : 0.062
Stream size                 : 910 MiB (91%)
Writing library             : x264 core 155 r2901 7d0ff22
Encoding settings           : cabac=1 / ref=3 / deblock=1:0:0 / analyse=0x3:0x113 / me=hex / subme=7 / psy=1 / psy_rd=1.00:0.00 / mixed_ref=1 / me_range=16 / chroma_me=1 / trellis=1 / 8x8dct=1 / cqm=0 / deadzone=21,11 / fast_pskip=1 / chroma_qp_offset=-2 / threads=17 / lookahead_threads=2 / sliced_threads=0 / nr=0 / decimate=1 / interlaced=0 / bluray_compat=0 / constrained_intra=0 / bframes=3 / b_pyramid=2 / b_adapt=1 / b_bias=0 / direct=1 / weightb=1 / open_gop=0 / weightp=2 / keyint=300 / keyint_min=29 / scenecut=40 / intra_refresh=0 / rc_lookahead=40 / rc=2pass / mbtree=1 / bitrate=1298 / ratetol=1.0 / qcomp=0.60 / qpmin=0 / qpmax=69 / qpstep=4 / cplxblur=20.0 / qblur=0.5 / ip_ratio=1.40 / aq=1:1.00
Language                    : Tamil
Default                     : Yes
Forced                      : No

Audio
ID                          : 2
Format                      : AC-3
Format/Info                 : Audio Coding 3
Format settings, Endianness : Big
Codec ID                    : A_AC3
Duration                    : 1 h 37 min
Bit rate mode               : Constant
Bit rate                    : 128 kb/s
Channel(s)                  : 6 channels
Channel positions           : Front: L C R, Side: L R, LFE
Sampling rate               : 44.1 kHz
Frame rate                  : 28.711 FPS (1536 SPF)
Bit depth                   : 16 bits
Compression mode            : Lossy
Stream size                 : 89.7 MiB (9%)
Language                    : Tamil
Service kind                : Complete Main
Default                     : Yes
Forced                      : No



Andhra Mess (2018) Tamil - 720p - HDRip - x264 - DD5.1-TMVAndhra Mess (2018) Tamil - 720p - HDRip - x264 - DD5.1-TMVAndhra Mess (2018) Tamil - 720p - HDRip - x264 - DD5.1-TMVAndhra Mess (2018) Tamil - 720p - HDRip - x264 - DD5.1-TMVAndhra Mess (2018) Tamil - 720p - HDRip - x264 - DD5.1-TMV

SINGLE DIRECT FAST LINKS
http://www.heroupload.us/3a28e02d5c950389/Andhra.Mess.2018.Tamil.HDRip.720p.x264.5.1-TMV.mkv



http://filefloater.com/1JN9/Andhra.Mess.2018.Tamil.HDRip.720p.x264.5.1-TMV.mkv


Buy Premium From My Links & Support Me

Теги: Andhra

Dear visitor, you are browsing our website as Guest.
We strongly recommend you to register and login to view hidden contents.

Comments:

Add Comments
Reply
  • Group: Members
  • ICQ:
  • Registration: 22.03.2018
  • Status: Currently Offline
  • 529 Comment
  • 0 Article
^
thnx,


a-prayer-before-dawn-2017
duck-duck-goose-2018
father-of-the-year-2018

thnx,


[url=https://www.reddit.com/r/filebabt2/]Free File Download/url]

thnx,


[url=https://www.reddit.com/r/filebabt2/]Free File Download/url]

thnx,


[url=https://groups.google.com/forum/#!forum/the-equalizer-2-2018-hd-rip-full-do
wnload-online]The Equalizer 2 2018 HD rip Full download Online/url]

thnx,


[url=https://groups.google.com/forum/#!forum/the-equalizer-2-2018-hd-rip-full-do
wnload-online]The Equalizer 2 2018 HD rip Full download Online/url]
Reply
  • Group: Members
  • ICQ:
  • Registration: 22.03.2018
  • Status: Currently Offline
  • 529 Comment
  • 0 Article
^
thnx,


[url=https://www.reddit.com/r/filebabt2]Free Downloads/url]

[url=https://www.reddit.com/user/govikujmg]Free File Downloads/url]

thnx,


Freepacofile

thnx,


Freepacofile

thnx,


Movieplanet4you

thnx,


Raazi(2018).avi
Duck Duck Goose.(2018).avi
Tully(2018).avi