Set as default Homepage|Bookmark
 
 
» » Nadigaiyar Thilagam (2018) Tamil - 720p - WEB-HD - AVC - AAC-MTR
Advertise

Nadigaiyar Thilagam (2018) Tamil - 720p - WEB-HD - AVC - AAC-MTR

Author: wroser on 21-06-2018, 21:27
Nadigaiyar Thilagam (2018) Tamil - 720p - WEB-HD - AVC - AAC-MTR





General
Format                      : MPEG-4
Format profile              : Base Media
Codec ID                    : isom (isom)
File size                   : 2.60 GiB
Duration                    : 2 h 51 min
Overall bit rate mode       : Variable
Overall bit rate            : 2 170 kb/s
Encoded date                : UTC 2018-06-21 14:23:05
Tagged date                 : UTC 2018-06-21 14:23:05
Writing application         : MkvToMp4 [www.mkvtomp4.ru] version 0.224 (x64)

Video
ID                          : 1
Format                      : AVC
Format/Info                 : Advanced Video Codec
Format profile              : Main@L3.1
Format settings, CABAC      : Yes
Format settings, RefFrames  : 4 frames
Codec ID                    : avc1
Codec ID/Info               : Advanced Video Coding
Duration                    : 2 h 51 min
Bit rate                    : 2 039 kb/s
Nominal bit rate            : 2 500 kb/s
Maximum bit rate            : 3 875 kb/s
Width                       : 1 280 pixels
Height                      : 720 pixels
Display aspect ratio        : 16:9
Frame rate mode             : Constant
Frame rate                  : 25.000 FPS
Color space                 : YUV
Chroma subsampling          : 4:2:0
Bit depth                   : 8 bits
Scan type                   : Progressive
Bits/(Pixel*Frame)          : 0.089
Stream size                 : 2.44 GiB (94%)
Writing library             : x264 core 148 r2694 3b70645
Encoding settings           : cabac=1 / ref=3 / deblock=1:0:0 / analyse=0x1:0x111 / me=hex / subme=7 / psy=1 / psy_rd=1.00:0.00 / mixed_ref=1 / me_range=16 / chroma_me=1 / trellis=1 / 8x8dct=0 / cqm=0 / deadzone=21,11 / fast_pskip=1 / chroma_qp_offset=-2 / threads=22 / lookahead_threads=3 / sliced_threads=0 / nr=0 / decimate=1 / interlaced=0 / bluray_compat=0 / constrained_intra=0 / bframes=3 / b_pyramid=2 / b_adapt=1 / b_bias=0 / direct=1 / weightb=1 / open_gop=0 / weightp=2 / keyint=50 / keyint_min=26 / scenecut=0 / intra_refresh=0 / rc_lookahead=40 / rc=cbr / mbtree=1 / bitrate=2500 / ratetol=1.0 / qcomp=0.60 / qpmin=0 / qpmax=69 / qpstep=4 / vbv_maxrate=2500 / vbv_bufsize=2500 / nal_hrd=none / filler=0 / ip_ratio=1.40 / aq=1:1.00
Language                    : English
Tagged date                 : UTC 2018-06-21 14:23:16

Audio
ID                          : 2
Format                      : AAC
Format/Info                 : Advanced Audio Codec
Format profile              : LC
Codec ID                    : 40
Duration                    : 2 h 51 min
Bit rate mode               : Variable
Bit rate                    : 127 kb/s
Maximum bit rate            : 141 kb/s
Channel(s)                  : 2 channels
Channel positions           : Front: L R
Sampling rate               : 44.1 kHz
Frame rate                  : 43.066 FPS (1024 SPF)
Compression mode            : Lossy
Stream size                 : 156 MiB (6%)
Language                    : English
Default                     : Yes
Alternate group             : 1
Encoded date                : UTC 2018-06-21 14:23:13
Tagged date                 : UTC 2018-06-21 14:23:16


Nadigaiyar Thilagam (2018) Tamil - 720p - WEB-HD - AVC - AAC-MTRNadigaiyar Thilagam (2018) Tamil - 720p - WEB-HD - AVC - AAC-MTRNadigaiyar Thilagam (2018) Tamil - 720p - WEB-HD - AVC - AAC-MTRNadigaiyar Thilagam (2018) Tamil - 720p - WEB-HD - AVC - AAC-MTRNadigaiyar Thilagam (2018) Tamil - 720p - WEB-HD - AVC - AAC-MTR


SINGLE DIRECT FAST LINKS
http://www.heroupload.us/0182464e741bd4ce/Nadigaiyar.Thilagam.2018.Tamil.Original.720p.HD.AVC.MP4-MTR.mp4


http://filefloater.com/1juO/Nadigaiyar.Thilagam.2018.Tamil.Original.720p.HD.AVC.MP4-MTR.mp4

700MB LINKS

http://www.heroupload.us/aabe140d4457f2db/Nadigaiyar.Thilagam.2018.Tamil.Original.720p.HD.AVC.MP4-MTR.part1.rar
http://www.heroupload.us/bec61cf9f61c43e1/Nadigaiyar.Thilagam.2018.Tamil.Original.720p.HD.AVC.MP4-MTR.part2.rar
http://www.heroupload.us/8f70eee3ae2f2b3a/Nadigaiyar.Thilagam.2018.Tamil.Original.720p.HD.AVC.MP4-MTR.part3.rar
http://www.heroupload.us/750a95f7b8f8bac9/Nadigaiyar.Thilagam.2018.Tamil.Original.720p.HD.AVC.MP4-MTR.part4.rar



http://filefloater.com/1juN/Nadigaiyar.Thilagam.2018.Tamil.Original.720p.HD.AVC.MP4-MTR.part1.rar
http://filefloater.com/1juM/Nadigaiyar.Thilagam.2018.Tamil.Original.720p.HD.AVC.MP4-MTR.part2.rar
http://filefloater.com/1juL/Nadigaiyar.Thilagam.2018.Tamil.Original.720p.HD.AVC.MP4-MTR.part3.rar
http://filefloater.com/1juK/Nadigaiyar.Thilagam.2018.Tamil.Original.720p.HD.AVC.MP4-MTR.part4.rar


Теги: Nadigaiyar

Dear visitor, you are browsing our website as Guest.
We strongly recommend you to register and login to view hidden contents.

Comments:

Add Comments
Reply
  • Group: Members
  • ICQ:
  • Registration: 22.03.2018
  • Status: Currently Online
  • 427 Comment
  • 0 Article
^