Set as default Homepage|Bookmark
 
 
» » Nadigaiyar Thilagam (2018) Tamil - 700MB - 1CDRip - HDRip - XviD - MP3-MTR
Advertise

Nadigaiyar Thilagam (2018) Tamil - 700MB - 1CDRip - HDRip - XviD - MP3-MTR

Author: wroser on 21-06-2018, 21:22
Nadigaiyar Thilagam (2018) Tamil - 700MB - 1CDRip - HDRip - XviD - MP3-MTR





General
Format                      : AVI
Format/Info                 : Audio Video Interleave
File size                   : 724 MiB
Duration                    : 2 h 51 min
Overall bit rate            : 590 kb/s

Video
ID                          : 0
Format                      : MPEG-4 Visual
Format profile              : Advanced Simple@L5
Format settings, BVOP       : 2
Format settings, QPel       : No
Format settings, GMC        : No warppoints
Format settings, Matrix     : Default (H.263)
Codec ID                    : XVID
Codec ID/Hint               : XviD
Duration                    : 2 h 51 min
Bit rate                    : 488 kb/s
Width                       : 608 pixels
Height                      : 256 pixels
Display aspect ratio        : 2.40:1
Frame rate                  : 25.000 FPS
Color space                 : YUV
Chroma subsampling          : 4:2:0
Bit depth                   : 8 bits
Scan type                   : Progressive
Compression mode            : Lossy
Bits/(Pixel*Frame)          : 0.125
Stream size                 : 599 MiB (83%)
Writing library             : XviD 67

Audio
ID                          : 1
Format                      : MPEG Audio
Format version              : Version 1
Format profile              : Layer 3
Mode                        : Joint stereo
Mode extension              : MS Stereo
Codec ID                    : 55
Codec ID/Hint               : MP3
Duration                    : 2 h 51 min
Bit rate mode               : Constant
Bit rate                    : 96.0 kb/s
Channel(s)                  : 2 channels
Sampling rate               : 48.0 kHz
Compression mode            : Lossy
Stream size                 : 118 MiB (16%)
Alignment                   : Aligned on interleaves
Interleave, duration        : 160  ms (4.00 video frames)
Interleave, preload duratio : 216  ms
Title                       : Nadigaiyar Thilagam
Writing library             : LAME3.99.5UUUU)




Nadigaiyar Thilagam (2018) Tamil - 700MB - 1CDRip - HDRip - XviD - MP3-MTRNadigaiyar Thilagam (2018) Tamil - 700MB - 1CDRip - HDRip - XviD - MP3-MTRNadigaiyar Thilagam (2018) Tamil - 700MB - 1CDRip - HDRip - XviD - MP3-MTRNadigaiyar Thilagam (2018) Tamil - 700MB - 1CDRip - HDRip - XviD - MP3-MTR

SINGLE DIRECT FAST LINKS

http://www.heroupload.us/c2d91389d4bb1bbc/Nadigaiyar.Thilagam.2018.Tamil.Original.HDRip.XviD.MP3.700MB-MTR.avi



http://filefloater.com/1juD/Nadigaiyar.Thilagam.2018.Tamil.Original.HDRip.XviD.MP3.700MB-MTR.avi


Теги: Nadigaiyar

Dear visitor, you are browsing our website as Guest.
We strongly recommend you to register and login to view hidden contents.

Comments:

Add Comments
Reply
  • Group: Members
  • ICQ:
  • Registration: 22.03.2018
  • Status: Currently Offline
  • 319 Comment
  • 0 Article
^