Set as default Homepage|Bookmark
 
 
» » Sema (2018) Tamil - 1080p - HDRip - x264 - DD5.1 - ESubs-MTR
Advertise

Sema (2018) Tamil - 1080p - HDRip - x264 - DD5.1 - ESubs-MTR

Author: wroser on 19-06-2018, 20:51
Sema (2018) Tamil - 1080p - HDRip - x264 - DD5.1 - ESubs-MTR




General
Format                      : Matroska
Format version              : Version 4 / Version 2
File size                   : 2.58 GiB
Duration                    : 1 h 59 min
Overall bit rate            : 3 094 kb/s
Encoded date                : UTC 2018-06-18 22:26:52
Writing application         : mkvmerge v7.8.0 ('River Man') 64bit built on Mar 27 2015 16:31:37
Writing library             : libebml v1.3.1 + libmatroska v1.4.2

Video
ID                          : 1
Format                      : AVC
Format/Info                 : Advanced Video Codec
Format profile              : High@L4
Format settings, CABAC      : Yes
Format settings, RefFrames  : 4 frames
Codec ID                    : V_MPEG4/ISO/AVC
Duration                    : 1 h 59 min
Bit rate                    : 2 888 kb/s
Width                       : 1 920 pixels
Height                      : 832 pixels
Display aspect ratio        : 2.35:1
Frame rate mode             : Constant
Frame rate                  : 24.000 FPS
Color space                 : YUV
Chroma subsampling          : 4:2:0
Bit depth                   : 8 bits
Scan type                   : Progressive
Bits/(Pixel*Frame)          : 0.075
Stream size                 : 2.42 GiB (94%)
Writing library             : x264 core 152 r2851 ba24899
Encoding settings           : cabac=1 / ref=3 / deblock=1:0:0 / analyse=0x3:0x113 / me=hex / subme=7 / psy=1 / psy_rd=1.00:0.00 / mixed_ref=1 / me_range=16 / chroma_me=1 / trellis=1 / 8x8dct=1 / cqm=0 / deadzone=21,11 / fast_pskip=1 / chroma_qp_offset=-2 / threads=26 / lookahead_threads=4 / sliced_threads=0 / nr=0 / decimate=1 / interlaced=0 / bluray_compat=0 / constrained_intra=0 / bframes=3 / b_pyramid=2 / b_adapt=1 / b_bias=0 / direct=1 / weightb=1 / open_gop=0 / weightp=2 / keyint=240 / keyint_min=24 / scenecut=40 / intra_refresh=0 / rc_lookahead=40 / rc=abr / mbtree=1 / bitrate=2888 / ratetol=1.0 / qcomp=0.60 / qpmin=0 / qpmax=69 / qpstep=4 / ip_ratio=1.40 / aq=1:1.00
Language                    : English
Default                     : Yes
Forced                      : No

Audio
ID                          : 2
Format                      : AC-3
Format/Info                 : Audio Coding 3
Format settings, Endianness : Big
Codec ID                    : A_AC3
Duration                    : 1 h 59 min
Bit rate mode               : Constant
Bit rate                    : 192 kb/s
Channel(s)                  : 6 channels
Channel positions           : Front: L C R, Side: L R, LFE
Sampling rate               : 44.1 kHz
Frame rate                  : 28.711 FPS (1536 SPF)
Bit depth                   : 16 bits
Compression mode            : Lossy
Stream size                 : 164 MiB (6%)
Language                    : English
Service kind                : Complete Main
Default                     : Yes
Forced                      : No



Sema (2018) Tamil - 1080p - HDRip - x264 - DD5.1 - ESubs-MTRSema (2018) Tamil - 1080p - HDRip - x264 - DD5.1 - ESubs-MTRSema (2018) Tamil - 1080p - HDRip - x264 - DD5.1 - ESubs-MTRSema (2018) Tamil - 1080p - HDRip - x264 - DD5.1 - ESubs-MTR


SINGLE DIRECT FAST LINKS
http://www.heroupload.us/dc4bf5dba091aca0/Sema.2018.Tamil.1080p.HDRip.x264.DD5.1.ESubs-MTR.mkv


http://filefloater.com/1jsD/Sema.2018.Tamil.1080p.HDRip.x264.DD5.1.ESubs-MTR.mkv

700MB LINKS

http://www.heroupload.us/f97cb79bd151e7f3/Sema.2018.Tamil.1080p.HDRip.x264.DD5.1.ESubs-MTR.part1.rar
http://www.heroupload.us/01133995ec4ad3ef/Sema.2018.Tamil.1080p.HDRip.x264.DD5.1.ESubs-MTR.part2.rar
http://www.heroupload.us/43efce31c2fa340e/Sema.2018.Tamil.1080p.HDRip.x264.DD5.1.ESubs-MTR.part3.rar
http://www.heroupload.us/a3d12bd10abe6073/Sema.2018.Tamil.1080p.HDRip.x264.DD5.1.ESubs-MTR.part4.rar



http://filefloater.com/1jsE/Sema.2018.Tamil.1080p.HDRip.x264.DD5.1.ESubs-MTR.part1.rar
http://filefloater.com/1jsF/Sema.2018.Tamil.1080p.HDRip.x264.DD5.1.ESubs-MTR.part2.rar
http://filefloater.com/1jsG/Sema.2018.Tamil.1080p.HDRip.x264.DD5.1.ESubs-MTR.part3.rar
http://filefloater.com/1jsH/Sema.2018.Tamil.1080p.HDRip.x264.DD5.1.ESubs-MTR.part4.rar





Теги: Sema

Dear visitor, you are browsing our website as Guest.
We strongly recommend you to register and login to view hidden contents.

Comments:

Add Comments