Set as default Homepage|Bookmark
 
 
» » Bharat Ennum Naan (2018) Tamil Original - 720p - HDRip - x264 - DD5.1 - ESubs-MTR
Advertise

Bharat Ennum Naan (2018) Tamil Original - 720p - HDRip - x264 - DD5.1 - ESubs-MTR

Author: wroser on 14-06-2018, 23:44
Bharat Ennum Naan (2018) Tamil Original - 720p - HDRip - x264 - DD5.1 - ESubs-MTR






General
Format                      : Matroska
Format version              : Version 4 / Version 2
File size                   : 1.48 GiB
Duration                    : 2 h 48 min
Overall bit rate            : 1 261 kb/s
Encoded date                : UTC 2018-06-14 20:13:16
Writing application         : mkvmerge v7.8.0 ('River Man') 64bit built on Mar 27 2015 16:31:37
Writing library             : libebml v1.3.1 + libmatroska v1.4.2

Video
ID                          : 1
Format                      : AVC
Format/Info                 : Advanced Video Codec
Format profile              : High@L3.1
Format settings, CABAC      : Yes
Format settings, RefFrames  : 4 frames
Codec ID                    : V_MPEG4/ISO/AVC
Duration                    : 2 h 48 min
Bit rate                    : 1 099 kb/s
Width                       : 1 280 pixels
Height                      : 536 pixels
Display aspect ratio        : 2.40:1
Frame rate mode             : Constant
Frame rate                  : 29.970 (30000/1001) FPS
Color space                 : YUV
Chroma subsampling          : 4:2:0
Bit depth                   : 8 bits
Scan type                   : Progressive
Bits/(Pixel*Frame)          : 0.053
Stream size                 : 1.29 GiB (87%)
Writing library             : x264 core 148 r2744 b97ae06
Encoding settings           : cabac=1 / ref=3 / deblock=1:0:0 / analyse=0x3:0x113 / me=hex / subme=7 / psy=1 / psy_rd=1.00:0.00 / mixed_ref=1 / me_range=16 / chroma_me=1 / trellis=1 / 8x8dct=1 / cqm=0 / deadzone=21,11 / fast_pskip=1 / chroma_qp_offset=-2 / threads=12 / lookahead_threads=2 / sliced_threads=0 / nr=0 / decimate=1 / interlaced=0 / bluray_compat=0 / constrained_intra=0 / bframes=3 / b_pyramid=2 / b_adapt=1 / b_bias=0 / direct=1 / weightb=1 / open_gop=0 / weightp=2 / keyint=300 / keyint_min=29 / scenecut=40 / intra_refresh=0 / rc_lookahead=40 / rc=2pass / mbtree=1 / bitrate=1099 / ratetol=1.0 / qcomp=0.60 / qpmin=0 / qpmax=69 / qpstep=4 / cplxblur=20.0 / qblur=0.5 / ip_ratio=1.40 / aq=1:1.00
Language                    : English
Default                     : Yes
Forced                      : No

Audio
ID                          : 2
Format                      : AC-3
Format/Info                 : Audio Coding 3
Format settings, Endianness : Big
Codec ID                    : A_AC3
Duration                    : 2 h 48 min
Bit rate mode               : Constant
Bit rate                    : 160 kb/s
Channel(s)                  : 6 channels
Channel positions           : Front: L C R, Side: L R, LFE
Sampling rate               : 44.1 kHz
Frame rate                  : 28.711 FPS (1536 SPF)
Bit depth                   : 16 bits
Compression mode            : Lossy
Stream size                 : 193 MiB (13%)
Language                    : English
Service kind                : Complete Main
Default                     : Yes
Forced                      : No


Bharat Ennum Naan (2018) Tamil Original - 720p - HDRip - x264 - DD5.1 - ESubs-MTRBharat Ennum Naan (2018) Tamil Original - 720p - HDRip - x264 - DD5.1 - ESubs-MTRBharat Ennum Naan (2018) Tamil Original - 720p - HDRip - x264 - DD5.1 - ESubs-MTRBharat Ennum Naan (2018) Tamil Original - 720p - HDRip - x264 - DD5.1 - ESubs-MTR

SINGLE DIRECT FAST LINKS

http://www.heroupload.us/5e31dc078f77f7c5/Bharat.Ennum.Naan.2018.Tamil.Original.Version.Original.Audio.Proper.720p.HDRip.x264.DD5.1-MTR.mkv



http://filefloater.com/Tpc/Bharat.Ennum.Naan.2018.Tamil.Original.Version.Original.Audio.Proper.720p.HDRip.x264.DD5.1-MTR.mkv





Теги: Bharat

Dear visitor, you are browsing our website as Guest.
We strongly recommend you to register and login to view hidden contents.

Comments:

Add Comments