Set as default Homepage|Bookmark
 
 
» » Kaala Koothu (2018) Ultra HD 4K - Untouched - AVC - Dolby ® 5.1 - Esubs-MTR
Advertise

Kaala Koothu (2018) Ultra HD 4K - Untouched - AVC - Dolby ® 5.1 - Esubs-MTR

Author: wroser on 14-06-2018, 23:40
Kaala Koothu (2018) Ultra HD 4K - Untouched - AVC - Dolby ® 5.1 - Esubs-MTR







General
Format                      : MPEG-4
Codec ID                    : M4V  (isom/avc1/mp42)
File size                   : 4.72 GiB
Duration                    : 1 h 59 min
Overall bit rate mode       : Variable
Overall bit rate            : 5 647 kb/s
Encoded date                : UTC 2018-06-13 09:26:53
Tagged date                 : UTC 2018-06-13 09:26:53

Video
ID                          : 1
Format                      : AVC
Format/Info                 : Advanced Video Codec
Format profile              : Main@L5.1
Format settings, CABAC      : Yes
Format settings, RefFrames  : 3 frames
Codec ID                    : avc1
Codec ID/Info               : Advanced Video Coding
Duration                    : 1 h 59 min
Bit rate mode               : Constant
Bit rate                    : 5 000 kb/s
Maximum bit rate            : 13.3 Mb/s
Width                       : 3 840 pixels
Height                      : 2 160 pixels
Display aspect ratio        : 16:9
Frame rate mode             : Constant
Frame rate                  : 24.000 FPS
Color space                 : YUV
Chroma subsampling          : 4:2:0
Bit depth                   : 8 bits
Scan type                   : Progressive
Bits/(Pixel*Frame)          : 0.025
Stream size                 : 4.18 GiB (89%)
Encoded date                : UTC 2018-06-13 09:26:53
Tagged date                 : UTC 2018-06-13 09:26:53
Color range                 : Limited
Color primaries             : BT.709
Transfer characteristics    : BT.709
Matrix coefficients         : BT.709

Audio #1
ID                          : 2
Format                      : AAC
Format/Info                 : Advanced Audio Codec
Format profile              : LC
Codec ID                    : 40
Duration                    : 1 h 59 min
Bit rate mode               : Variable
Bit rate                    : 128 kb/s
Maximum bit rate            : 133 kb/s
Channel(s)                  : 2 channels
Channel positions           : Front: L R
Sampling rate               : 48.0 kHz
Frame rate                  : 46.875 FPS (1024 SPF)
Compression mode            : Lossy
Stream size                 : 107 MiB (2%)
Language                    : English
Encoded date                : UTC 2018-06-13 09:26:53
Tagged date                 : UTC 2018-06-13 09:26:53

Audio #2
ID                          : 3
Format                      : AC-3
Format/Info                 : Audio Coding 3
Format settings, Endianness : Big
Codec ID                    : ac-3
Duration                    : 1 h 59 min
Bit rate mode               : Constant
Bit rate                    : 512 kb/s
Channel(s)                  : 6 channels
Channel positions           : Front: L C R, Side: L R, LFE
Sampling rate               : 48.0 kHz
Frame rate                  : 31.250 FPS (1536 SPF)
Bit depth                   : 16 bits
Compression mode            : Lossy
Stream size                 : 438 MiB (9%)
Language                    : English
Service kind                : Complete Main
Encoded date                : UTC 2018-06-13 09:26:53
Tagged date                 : UTC 2018-06-13 09:26:53


Kaala Koothu (2018) Ultra HD 4K - Untouched - AVC - Dolby ® 5.1 - Esubs-MTRKaala Koothu (2018) Ultra HD 4K - Untouched - AVC - Dolby ® 5.1 - Esubs-MTRKaala Koothu (2018) Ultra HD 4K - Untouched - AVC - Dolby ® 5.1 - Esubs-MTRKaala Koothu (2018) Ultra HD 4K - Untouched - AVC - Dolby ® 5.1 - Esubs-MTR


SINGLE DIRECT FAST LINKS
http://www.heroupload.us/b7e7bddebcef5aa1/Kaala.Koothu.2018.4K.Untouched.UHD.MP4.ESubs.Tamil-MTR.mp4


http://filefloater.com/Tpg/Kaala.Koothu.2018.4K.Untouched.UHD.MP4.ESubs.Tamil-MTR.mp4

1GB LINKS

http://www.heroupload.us/e155af74809910dd/Kaala.Koothu.2018.4K.Untouched.UHD.MP4.ESubs.Tamil-MTR.part1.rar
http://www.heroupload.us/56981e30fe42727b/Kaala.Koothu.2018.4K.Untouched.UHD.MP4.ESubs.Tamil-MTR.part2.rar
http://www.heroupload.us/9673792e509307b1/Kaala.Koothu.2018.4K.Untouched.UHD.MP4.ESubs.Tamil-MTR.part3.rar
http://www.heroupload.us/1d49bc83852555ce/Kaala.Koothu.2018.4K.Untouched.UHD.MP4.ESubs.Tamil-MTR.part4.rar
http://www.heroupload.us/1d26c60f67352029/Kaala.Koothu.2018.4K.Untouched.UHD.MP4.ESubs.Tamil-MTR.part5.rar
http://www.heroupload.us/0e3ae35de866a406/Kaala.Koothu.2018.4K.Untouched.UHD.MP4.ESubs.Tamil-MTR.srt



http://filefloater.com/Tph/Kaala.Koothu.2018.4K.Untouched.UHD.MP4.ESubs.Tamil-MTR.part1.rar
http://filefloater.com/Tpi/Kaala.Koothu.2018.4K.Untouched.UHD.MP4.ESubs.Tamil-MTR.part2.rar
http://filefloater.com/Tpj/Kaala.Koothu.2018.4K.Untouched.UHD.MP4.ESubs.Tamil-MTR.part3.rar
http://filefloater.com/Tpk/Kaala.Koothu.2018.4K.Untouched.UHD.MP4.ESubs.Tamil-MTR.part4.rar
http://filefloater.com/Tpl/Kaala.Koothu.2018.4K.Untouched.UHD.MP4.ESubs.Tamil-MTR.part5.rar
http://filefloater.com/Tpm/Kaala.Koothu.2018.4K.Untouched.UHD.MP4.ESubs.Tamil-MTR.srt





Теги: Kaala

Dear visitor, you are browsing our website as Guest.
We strongly recommend you to register and login to view hidden contents.

Comments:

Add Comments