Set as default Homepage|Bookmark
 
 
» » Bhaagamathie (2018) 1080p - HDRip - x264 [Original Dual Audio][Tamil+Telugu] - TMV
Advertise

Bhaagamathie (2018) 1080p - HDRip - x264 [Original Dual Audio][Tamil+Telugu] - TMV

Author: wroser on 15-04-2018, 21:28
Bhaagamathie (2018) 1080p - HDRip - x264 [Original Dual Audio][Tamil+Telugu] - TMV






General
Format                      : Matroska
Format version              : Version 4 / Version 2
File size                   : 3.09 GiB
Duration                    : 2 h 17 min
Overall bit rate mode       : Variable
Overall bit rate            : 3 218 kb/s
Encoded date                : UTC 2018-04-14 13:06:33
Writing application         : mkvmerge v7.1.0 ('Good Love') 32bit built on Jul 27 2014 12:59:18
Writing library             : libebml v1.3.0 + libmatroska v1.4.1

Video
ID                          : 1
Format                      : AVC
Format/Info                 : Advanced Video Codec
Format profile              : High@L4
Format settings, CABAC      : Yes
Format settings, RefFrames  : 4 frames
Codec ID                    : V_MPEG4/ISO/AVC
Duration                    : 2 h 17 min
Bit rate                    : 3 025 kb/s
Width                       : 1 920 pixels
Height                      : 1 080 pixels
Display aspect ratio        : 16:9
Frame rate mode             : Constant
Frame rate                  : 30.000 FPS
Color space                 : YUV
Chroma subsampling          : 4:2:0
Bit depth                   : 8 bits
Scan type                   : Progressive
Bits/(Pixel*Frame)          : 0.049
Stream size                 : 2.91 GiB (94%)
Writing library             : x264 core 148 r2744 b97ae06
Encoding settings           : cabac=1 / ref=3 / deblock=1:0:0 / analyse=0x3:0x113 / me=hex / subme=7 / psy=1 / psy_rd=1.00:0.00 / mixed_ref=1 / me_range=16 / chroma_me=1 / trellis=1 / 8x8dct=1 / cqm=0 / deadzone=21,11 / fast_pskip=1 / chroma_qp_offset=-2 / threads=34 / lookahead_threads=5 / sliced_threads=0 / nr=0 / decimate=1 / interlaced=0 / bluray_compat=0 / constrained_intra=0 / bframes=3 / b_pyramid=2 / b_adapt=1 / b_bias=0 / direct=1 / weightb=1 / open_gop=0 / weightp=2 / keyint=300 / keyint_min=30 / scenecut=40 / intra_refresh=0 / rc_lookahead=40 / rc=abr / mbtree=1 / bitrate=3025 / ratetol=1.0 / qcomp=0.60 / qpmin=0 / qpmax=69 / qpstep=4 / ip_ratio=1.40 / aq=1:1.00
Language                    : Telugu
Default                     : Yes
Forced                      : No

Audio #1
ID                          : 2
Format                      : MPEG Audio
Format version              : Version 1
Format profile              : Layer 3
Mode                        : Joint stereo
Mode extension              : MS Stereo
Codec ID                    : A_MPEG/L3
Codec ID/Hint               : MP3
Duration                    : 2 h 17 min
Bit rate mode               : Variable
Bit rate                    : 96.0 kb/s
Channel(s)                  : 2 channels
Sampling rate               : 44.1 kHz
Frame rate                  : 38.281 FPS (1152 SPF)
Compression mode            : Lossy
Stream size                 : 92.5 MiB (3%)
Writing library             : LAME3.99r
Encoding settings           : -m j -V 4 -q 3 -lowpass 15.1 --abr 96
Language                    : Tamil
Default                     : Yes
Forced                      : No

Audio #2
ID                          : 3
Format                      : MPEG Audio
Format version              : Version 1
Format profile              : Layer 3
Mode                        : Joint stereo
Mode extension              : MS Stereo
Codec ID                    : A_MPEG/L3
Codec ID/Hint               : MP3
Duration                    : 2 h 17 min
Bit rate mode               : Variable
Bit rate                    : 96.0 kb/s
Channel(s)                  : 2 channels
Sampling rate               : 44.1 kHz
Frame rate                  : 38.281 FPS (1152 SPF)
Compression mode            : Lossy
Stream size                 : 93.9 MiB (3%)
Writing library             : LAME3.99r
Encoding settings           : -m j -V 4 -q 3 -lowpass 15.1 --abr 96
Language                    : Telugu
Default                     : No
Forced                      : No



Bhaagamathie (2018) 1080p - HDRip - x264 [Original Dual Audio][Tamil+Telugu] - TMVBhaagamathie (2018) 1080p - HDRip - x264 [Original Dual Audio][Tamil+Telugu] - TMVBhaagamathie (2018) 1080p - HDRip - x264 [Original Dual Audio][Tamil+Telugu] - TMVBhaagamathie (2018) 1080p - HDRip - x264 [Original Dual Audio][Tamil+Telugu] - TMVBhaagamathie (2018) 1080p - HDRip - x264 [Original Dual Audio][Tamil+Telugu] - TMV

SINGLE DIRECT FAST LINKS
http://www.heroupload.us/4ff3aee9468a72eb/Bhaagamathie.2018.HDRip.1080p.Tamil.Org+Telugu-TMV.mkv


http://filefloater.com/SGu/Bhaagamathie.2018.HDRip.1080p.Tamil.Org+Telugu-TMV.mkv

700MB LINKS


http://www.heroupload.us/2116aa9ec0b2a317/Bhaagamathie.2018.HDRip.1080p.Tamil.Org+Telugu-TMV.part1.rar
http://www.heroupload.us/8019411aeed8fad4/Bhaagamathie.2018.HDRip.1080p.Tamil.Org+Telugu-TMV.part2.rar
http://www.heroupload.us/c00720e4935c548d/Bhaagamathie.2018.HDRip.1080p.Tamil.Org+Telugu-TMV.part3.rar
http://www.heroupload.us/3ee9e9742f072476/Bhaagamathie.2018.HDRip.1080p.Tamil.Org+Telugu-TMV.part4.rar
http://www.heroupload.us/9194b1b7aeaf0152/Bhaagamathie.2018.HDRip.1080p.Tamil.Org+Telugu-TMV.part5.rar



http://filefloater.com/SGv/Bhaagamathie.2018.HDRip.1080p.Tamil.Org+Telugu-TMV.part1.rar
http://filefloater.com/SGx/Bhaagamathie.2018.HDRip.1080p.Tamil.Org+Telugu-TMV.part2.rar
http://filefloater.com/SGz/Bhaagamathie.2018.HDRip.1080p.Tamil.Org+Telugu-TMV.part3.rar
http://filefloater.com/1iHu/Bhaagamathie.2018.HDRip.1080p.Tamil.Org+Telugu-TMV.part4.rar
http://filefloater.com/1iHv/Bhaagamathie.2018.HDRip.1080p.Tamil.Org+Telugu-TMV.part5.rar



Теги: Bhaagamathie

Dear visitor, you are browsing our website as Guest.
We strongly recommend you to register and login to view hidden contents.

Comments:

Add Comments