Set as default Homepage|Bookmark
 
 
» » Kaathadi (2018) Tamil - 720p - WEB-HD - AVC - AAC - Esubs-MTR
Advertise

Kaathadi (2018) Tamil - 720p - WEB-HD - AVC - AAC - Esubs-MTR

Author: wroser on 30-03-2018, 10:29
Kaathadi (2018) Tamil - 720p - WEB-HD - AVC - AAC - Esubs-MTR





General
Format                      : MPEG-4
Format profile              : Base Media
Codec ID                    : isom (isom)
File size                   : 2.51 GiB
Duration                    : 1 h 47 min
Overall bit rate mode       : Variable
Overall bit rate            : 3 347 kb/s
Encoded date                : UTC 2018-03-29 15:43:58
Tagged date                 : UTC 2018-03-29 15:43:58
Writing application         : MkvToMp4 [www.mkvtomp4.ru] version 0.224 (x64)

Video
ID                          : 1
Format                      : AVC
Format/Info                 : Advanced Video Codec
Format profile              : Main@L3.1
Format settings, CABAC      : Yes
Format settings, RefFrames  : 3 frames
Format settings, GOP        : M=4, N=90
Codec ID                    : avc1
Codec ID/Info               : Advanced Video Coding
Duration                    : 1 h 47 min
Source duration             : 1 h 47 min
Bit rate mode               : Constant
Bit rate                    : 3 250 kb/s
Maximum bit rate            : 6 647 kb/s
Width                       : 1 280 pixels
Height                      : 720 pixels
Display aspect ratio        : 16:9
Frame rate mode             : Constant
Frame rate                  : 29.970 (30000/1001) FPS
Color space                 : YUV
Chroma subsampling          : 4:2:0
Bit depth                   : 8 bits
Scan type                   : Progressive
Bits/(Pixel*Frame)          : 0.118
Stream size                 : 2.33 GiB (93%)
Source stream size          : 2.43 GiB (97%)
Language                    : English
Tagged date                 : UTC 2018-03-29 15:44:04

Audio
ID                          : 2
Format                      : AAC
Format/Info                 : Advanced Audio Codec
Format profile              : LC
Codec ID                    : 40
Duration                    : 1 h 47 min
Bit rate mode               : Variable
Bit rate                    : 93.4 kb/s
Maximum bit rate            : 99.5 kb/s
Channel(s)                  : 2 channels
Channel positions           : Front: L R
Sampling rate               : 48.0 kHz
Frame rate                  : 46.875 FPS (1024 SPF)
Compression mode            : Lossy
Stream size                 : 71.6 MiB (3%)
Language                    : English
Default                     : Yes
Alternate group             : 1
Encoded date                : UTC 2018-03-29 15:44:02
Tagged date                 : UTC 2018-03-29 15:44:04



Kaathadi (2018) Tamil - 720p - WEB-HD - AVC - AAC - Esubs-MTRKaathadi (2018) Tamil - 720p - WEB-HD - AVC - AAC - Esubs-MTRKaathadi (2018) Tamil - 720p - WEB-HD - AVC - AAC - Esubs-MTRKaathadi (2018) Tamil - 720p - WEB-HD - AVC - AAC - Esubs-MTRKaathadi (2018) Tamil - 720p - WEB-HD - AVC - AAC - Esubs-MTRKaathadi (2018) Tamil - 720p - WEB-HD - AVC - AAC - Esubs-MTR


SINGLE DIRECT FAST LINKS
http://www.heroupload.us/4443008d050da2cd/Kaathadi.2018.720p.HD.AVC.ESubs.Tamil-MTR.mp4


http://filefloater.com/56p/Kaathadi.2018.720p.HD.AVC.ESubs.Tamil-MTR.mp4

700MB LINKS

http://www.heroupload.us/d504e7d54885104e/Kaathadi.2018.720p.HD.AVC.ESubs.Tamil-MTR.part1.rar
http://www.heroupload.us/e350453a8eeadd9c/Kaathadi.2018.720p.HD.AVC.ESubs.Tamil-MTR.part2.rar
http://www.heroupload.us/29912cd33ee3ed05/Kaathadi.2018.720p.HD.AVC.ESubs.Tamil-MTR.part3.rar
http://www.heroupload.us/416aa1ffbf2c1d41/Kaathadi.2018.720p.HD.AVC.ESubs.Tamil-MTR.part4.rar
http://www.heroupload.us/470c218b91c2b0b8/Kaathadi.2018.720p.HD.AVC.ESubs.Tamil-MTR.srt



http://filefloater.com/56q/Kaathadi.2018.720p.HD.AVC.ESubs.Tamil-MTR.part1.rar
http://filefloater.com/56r/Kaathadi.2018.720p.HD.AVC.ESubs.Tamil-MTR.part2.rar
http://filefloater.com/56s/Kaathadi.2018.720p.HD.AVC.ESubs.Tamil-MTR.part3.rar
http://filefloater.com/56t/Kaathadi.2018.720p.HD.AVC.ESubs.Tamil-MTR.part4.rar
http://filefloater.com/ait/Kaathadi.2018.720p.HD.AVC.ESubs.Tamil-MTR.srt



Теги: Kaathadi

Dear visitor, you are browsing our website as Guest.
We strongly recommend you to register and login to view hidden contents.

Comments:

Add Comments
Reply
  • Group: Guests
  • ICQ:
  • Registration: --
  • Status:
  • 0 Comment
  • 0 Article
^
kamagra 100 chewable tablets
kamagra 100mg tablets usa 247 pills
kamagra 100mg chewable lifesavers
<a href="http://lkkkopzql.com/">kamagrabst.com</a>
erfahrungsbericht kamagra oral jelly wirkung

kamagra jelly use
buy kamagra online
kamagra 100mg tablets use
<a href="http://lkkkopwql.com/">kamagra kopen nederland</a>
kamagra oral jelly uses

kamagra forum srpski
kamagra oral jelly 100mg 1 week pack
womens kamagra 100mg tablets
<a href="http://lkkkoqaql.com/">kamagra jelly kopen rotterdam</a>
super kamagra opinie forum

kamagra store erfahrung
buy kamagra 100 mg
kamagra oral jelly sildenafil
<a href="http://lkkkspwql.com/">the kamagra store coupon</a>
kamagra 100mg tablets for sale in used cars
Reply
  • Group: Guests
  • ICQ:
  • Registration: --
  • Status:
  • 0 Comment
  • 0 Article
^
kamagra oral jelly wirkungsdauer
kamagra 100mg chewable lifesavers
kamagra 100mg tablets usa
<a href="http://lkbkspwql.com/">kamagra shop erfahrungen 2015</a>
kamagra forum

cialis soft tabs vs cialis
buy cialis online
cialis coupon card
<a href="http://cialispaxl.com/">buy generic cialis</a>
cialis 5mg price walgreens
http://cialispaxl.com/
cialis brand 20 mg original

price comparison with cialis and viagra
<a href="http://viagrapipls.com/">buy generic viagra</a>
viagra without a doctor prescription online
viagra
viagra caseiro que funciona na hora
http://viagrapipls.com/
como fazer viagra caseiro feminino
Reply
  • Group: Guests
  • ICQ:
  • Registration: --
  • Status:
  • 0 Comment
  • 0 Article
^
walgreens cialis coupon
<a href="http://cialispaxl.com/">buy cialis online</a>
is generic cialis available in us
cialis
comparison viagra and cialis
http://cialispaxl.com/
cialis 5mg price in pakistan