Set as default Homepage|Bookmark
 
 
» » Gulaebaghavali (2018) Tamil - 700MB - 1CDRip - HDRip - XviD - MP3-MTR
Advertise

Gulaebaghavali (2018) Tamil - 700MB - 1CDRip - HDRip - XviD - MP3-MTR

Author: wroser on 9-02-2018, 14:47
Gulaebaghavali (2018) Tamil - 700MB - 1CDRip - HDRip - XviD - MP3-MTR





General
Format                      : AVI
Format/Info                 : Audio Video Interleave
File size                   : 715 MiB
Duration                    : 2 h 5 min
Overall bit rate            : 796 kb/s

Video
ID                          : 0
Format                      : MPEG-4 Visual
Format profile              : Advanced Simple@L5
Format settings, BVOP       : 2
Format settings, QPel       : No
Format settings, GMC        : No warppoints
Format settings, Matrix     : Default (H.263)
Codec ID                    : XVID
Codec ID/Hint               : XviD
Duration                    : 2 h 5 min
Bit rate                    : 694 kb/s
Width                       : 608 pixels
Height                      : 256 pixels
Display aspect ratio        : 2.40:1
Frame rate                  : 23.976 (24000/1001) FPS
Color space                 : YUV
Chroma subsampling          : 4:2:0
Bit depth                   : 8 bits
Scan type                   : Progressive
Compression mode            : Lossy
Bits/(Pixel*Frame)          : 0.186
Stream size                 : 623 MiB (87%)
Writing library             : XviD 67

Audio
ID                          : 1
Format                      : MPEG Audio
Format version              : Version 1
Format profile              : Layer 3
Mode                        : Joint stereo
Mode extension              : MS Stereo
Codec ID                    : 55
Codec ID/Hint               : MP3
Duration                    : 2 h 5 min
Bit rate mode               : Constant
Bit rate                    : 96.0 kb/s
Channel(s)                  : 2 channels
Sampling rate               : 44.1 kHz
Compression mode            : Lossy
Stream size                 : 86.3 MiB (12%)
Alignment                   : Aligned on interleaves
Interleave, duration        : 167  ms (4.00 video frames)
Interleave, preload duratio : 208  ms
Title                       : Gulaebaghavali
Writing library             : LAME



Gulaebaghavali (2018) Tamil - 700MB - 1CDRip - HDRip - XviD - MP3-MTRGulaebaghavali (2018) Tamil - 700MB - 1CDRip - HDRip - XviD - MP3-MTRGulaebaghavali (2018) Tamil - 700MB - 1CDRip - HDRip - XviD - MP3-MTRGulaebaghavali (2018) Tamil - 700MB - 1CDRip - HDRip - XviD - MP3-MTRGulaebaghavali (2018) Tamil - 700MB - 1CDRip - HDRip - XviD - MP3-MTRGulaebaghavali (2018) Tamil - 700MB - 1CDRip - HDRip - XviD - MP3-MTR


SINGLE DIRECT FAST LINKS


http://filefloater.com/4qf/Gulaebaghavali.2018.HDRip.XviD.MP3.700MB.Tamil-MTR.avi



https://www.heroupload.com/678ba35e12270009/Gulaebaghavali.2018.HDRip.XviD.MP3.700MB.Tamil-MTR.avi





Теги: Gulaebaghavali

Dear visitor, you are browsing our website as Guest.
We strongly recommend you to register and login to view hidden contents.

Comments:

Add Comments