Set as default Homepage|Bookmark
 
 
» » Pyaar Prema Kaadhal (2018) Tamil - 1080p - HDRip - x264 - DD5.1 - MTR
Advertise

Pyaar Prema Kaadhal (2018) Tamil - 1080p - HDRip - x264 - DD5.1 - MTR

Author: wroser on 7-09-2018, 01:19
Pyaar Prema Kaadhal (2018) Tamil - 1080p - HDRip - x264 - DD5.1 - MTR





Format                      : Matroska
Format version              : Version 4 / Version 2
File size                   : 2.54 GiB
Duration                    : 2 h 19 min
Overall bit rate            : 2 608 kb/s
Encoded date                : UTC 2018-09-06 20:58:26
Writing application         : mkvmerge v7.8.0 ('River Man') 64bit built on Mar 27 2015 16:31:37
Writing library             : libebml v1.3.1 + libmatroska v1.4.2

Video
ID                          : 1
Format                      : AVC
Format/Info                 : Advanced Video Codec
Format profile              : High@L4
Format settings, CABAC      : Yes
Format settings, RefFrames  : 4 frames
Codec ID                    : V_MPEG4/ISO/AVC
Duration                    : 2 h 19 min
Bit rate                    : 2 473 kb/s
Width                       : 1 920 pixels
Height                      : 832 pixels
Display aspect ratio        : 2.35:1
Frame rate mode             : Constant
Frame rate                  : 24.000 FPS
Color space                 : YUV
Chroma subsampling          : 4:2:0
Bit depth                   : 8 bits
Scan type                   : Progressive
Bits/(Pixel*Frame)          : 0.065
Stream size                 : 2.38 GiB (94%)
Writing library             : x264 core 152 r2851 ba24899
Encoding settings           : cabac=1 / ref=3 / deblock=1:0:0 / analyse=0x3:0x113 / me=hex / subme=7 / psy=1 / psy_rd=1.00:0.00 / mixed_ref=1 / me_range=16 / chroma_me=1 / trellis=1 / 8x8dct=1 / cqm=0 / deadzone=21,11 / fast_pskip=1 / chroma_qp_offset=-2 / threads=26 / lookahead_threads=4 / sliced_threads=0 / nr=0 / decimate=1 / interlaced=0 / bluray_compat=0 / constrained_intra=0 / bframes=3 / b_pyramid=2 / b_adapt=1 / b_bias=0 / direct=1 / weightb=1 / open_gop=0 / weightp=2 / keyint=240 / keyint_min=24 / scenecut=40 / intra_refresh=0 / rc_lookahead=40 / rc=abr / mbtree=1 / bitrate=2473 / ratetol=1.0 / qcomp=0.60 / qpmin=0 / qpmax=69 / qpstep=4 / ip_ratio=1.40 / aq=1:1.00
Language                    : English
Default                     : Yes
Forced                      : No

Audio
ID                          : 2
Format                      : AC-3
Format/Info                 : Audio Coding 3
Format settings, Endianness : Big
Codec ID                    : A_AC3
Duration                    : 2 h 19 min
Bit rate mode               : Constant
Bit rate                    : 160 kb/s
Channel(s)                  : 6 channels
Channel positions           : Front: L C R, Side: L R, LFE
Sampling rate               : 44.1 kHz
Frame rate                  : 28.711 FPS (1536 SPF)
Bit depth                   : 16 bits
Compression mode            : Lossy
Stream size                 : 160 MiB (6%)
Language                    : English
Service kind                : Complete Main
Default                     : Yes
Forced                      : No



Pyaar Prema Kaadhal (2018) Tamil - 1080p - HDRip - x264 - DD5.1 - MTRPyaar Prema Kaadhal (2018) Tamil - 1080p - HDRip - x264 - DD5.1 - MTRPyaar Prema Kaadhal (2018) Tamil - 1080p - HDRip - x264 - DD5.1 - MTRPyaar Prema Kaadhal (2018) Tamil - 1080p - HDRip - x264 - DD5.1 - MTR

SINGLE DIRECT FAST LINKS

http://www.heroupload.us/c22571da0a984e79/Pyaar.Prema.Kaadhal.2018.1080p.HDRip.x264.AC3.5.1.ESubs.Tamil-MTR.mkv


http://filefloater.com/2AIc/Pyaar.Prema.Kaadhal.2018.1080p.HDRip.x264.AC3.5.1.ESubs.Tamil-MTR.mkv

700MB LINKS

http://www.heroupload.us/7866b806d31d997e/Pyaar.Prema.Kaadhal.2018.1080p.HDRip.x264.AC3.5.1.ESubs.Tamil-MTR.part1.rar
http://www.heroupload.us/847fb8ce58262012/Pyaar.Prema.Kaadhal.2018.1080p.HDRip.x264.AC3.5.1.ESubs.Tamil-MTR.part2.rar
http://www.heroupload.us/28bb8ab33e14582a/Pyaar.Prema.Kaadhal.2018.1080p.HDRip.x264.AC3.5.1.ESubs.Tamil-MTR.part3.rar
http://www.heroupload.us/779ff88d1a5842fc/Pyaar.Prema.Kaadhal.2018.1080p.HDRip.x264.AC3.5.1.ESubs.Tamil-MTR.part4.rar



http://filefloater.com/2AId/Pyaar.Prema.Kaadhal.2018.1080p.HDRip.x264.AC3.5.1.ESubs.Tamil-MTR.part1.rar
http://filefloater.com/2AIe/Pyaar.Prema.Kaadhal.2018.1080p.HDRip.x264.AC3.5.1.ESubs.Tamil-MTR.part2.rar
http://filefloater.com/2AIf/Pyaar.Prema.Kaadhal.2018.1080p.HDRip.x264.AC3.5.1.ESubs.Tamil-MTR.part3.rar
http://filefloater.com/2AIg/Pyaar.Prema.Kaadhal.2018.1080p.HDRip.x264.AC3.5.1.ESubs.Tamil-MTR.part4.rar


Buy Premium From My Links & Support Me

Теги: Pyaar

Dear visitor, you are browsing our website as Guest.
We strongly recommend you to register and login to view hidden contents.

Comments:

Add Comments
Reply
  • Root

  • 8 September 2018 16:44
  • Group: Guests
  • ICQ:
  • Registration: --
  • Status:
  • 0 Comment
  • 0 Article
^
Bollywood is now improving a lot and they are working on good stories now a day. The useful reference share this movie if you do not get it in good quality then you can ask them.