Set as default Homepage|Bookmark
 
 
» » Maniyar Kudumbam (2018) Tamil Ultra HD 4K - Untouched - AVC - Dolby ® 5.1 - Esubs-MTR
Advertise

Maniyar Kudumbam (2018) Tamil Ultra HD 4K - Untouched - AVC - Dolby ® 5.1 - Esubs-MTR

Author: wroser on 31-08-2018, 21:55
Maniyar Kudumbam (2018) Tamil Ultra HD 4K - Untouched - AVC - Dolby ® 5.1 - Esubs-MTR






Format                      : MPEG-4
Codec ID                    : M4V  (isom/avc1/mp42)
File size                   : 4.95 GiB
Duration                    : 2 h 5 min
Overall bit rate mode       : Variable
Overall bit rate            : 5 647 kb/s
Encoded date                : UTC 2018-08-29 10:28:39
Tagged date                 : UTC 2018-08-29 10:28:39

Video
ID                          : 1
Format                      : AVC
Format/Info                 : Advanced Video Codec
Format profile              : Main@L5.1
Format settings, CABAC      : Yes
Format settings, RefFrames  : 3 frames
Codec ID                    : avc1
Codec ID/Info               : Advanced Video Coding
Duration                    : 2 h 5 min
Bit rate mode               : Constant
Bit rate                    : 5 000 kb/s
Maximum bit rate            : 13.0 Mb/s
Width                       : 3 840 pixels
Height                      : 2 160 pixels
Display aspect ratio        : 16:9
Frame rate mode             : Constant
Frame rate                  : 24.000 FPS
Color space                 : YUV
Chroma subsampling          : 4:2:0
Bit depth                   : 8 bits
Scan type                   : Progressive
Bits/(Pixel*Frame)          : 0.025
Stream size                 : 4.38 GiB (89%)
Encoded date                : UTC 2018-08-29 10:28:39
Tagged date                 : UTC 2018-08-29 10:28:39
Color range                 : Limited
Color primaries             : BT.709
Transfer characteristics    : BT.709
Matrix coefficients         : BT.709

Audio #1
ID                          : 2
Format                      : AAC
Format/Info                 : Advanced Audio Codec
Format profile              : LC
Codec ID                    : 40
Duration                    : 2 h 5 min
Bit rate mode               : Variable
Bit rate                    : 128 kb/s
Maximum bit rate            : 132 kb/s
Channel(s)                  : 2 channels
Channel positions           : Front: L R
Sampling rate               : 48.0 kHz
Frame rate                  : 46.875 FPS (1024 SPF)
Compression mode            : Lossy
Stream size                 : 112 MiB (2%)
Language                    : English
Encoded date                : UTC 2018-08-29 10:28:39
Tagged date                 : UTC 2018-08-29 10:28:39

Audio #2
ID                          : 3
Format                      : AC-3
Format/Info                 : Audio Coding 3
Format settings, Endianness : Big
Codec ID                    : ac-3
Duration                    : 2 h 5 min
Bit rate mode               : Constant
Bit rate                    : 512 kb/s
Channel(s)                  : 6 channels
Channel positions           : Front: L C R, Side: L R, LFE
Sampling rate               : 48.0 kHz
Frame rate                  : 31.250 FPS (1536 SPF)
Bit depth                   : 16 bits
Compression mode            : Lossy
Stream size                 : 459 MiB (9%)
Language                    : English
Service kind                : Complete Main
Encoded date                : UTC 2018-08-29 10:28:39
Tagged date                 : UTC 2018-08-29 10:28:39


Maniyar Kudumbam (2018) Tamil Ultra HD 4K - Untouched - AVC - Dolby ® 5.1 - Esubs-MTRManiyar Kudumbam (2018) Tamil Ultra HD 4K - Untouched - AVC - Dolby ® 5.1 - Esubs-MTRManiyar Kudumbam (2018) Tamil Ultra HD 4K - Untouched - AVC - Dolby ® 5.1 - Esubs-MTRManiyar Kudumbam (2018) Tamil Ultra HD 4K - Untouched - AVC - Dolby ® 5.1 - Esubs-MTRManiyar Kudumbam (2018) Tamil Ultra HD 4K - Untouched - AVC - Dolby ® 5.1 - Esubs-MTRManiyar Kudumbam (2018) Tamil Ultra HD 4K - Untouched - AVC - Dolby ® 5.1 - Esubs-MTR


SINGLE DIRECT FAST LINKS
http://www.heroupload.us/5aac62635cc0fcbd/Maniyar.Kudumbam.2018.4K.Untouched.UHD.MP4.ESubs.Tamil-MTR.mp4


http://filefloater.com/1kyF/Maniyar.Kudumbam.2018.4K.Untouched.UHD.MP4.ESubs.Tamil-MTR.mp4

1GB LINKS

http://www.heroupload.us/8ffdb510ea8f0d82/Maniyar.Kudumbam.2018.4K.Untouched.UHD.MP4.ESubs.Tamil-MTR.part1.rar
http://www.heroupload.us/a6d625eed87e0897/Maniyar.Kudumbam.2018.4K.Untouched.UHD.MP4.ESubs.Tamil-MTR.part2.rar
http://www.heroupload.us/0738f18d854ae04e/Maniyar.Kudumbam.2018.4K.Untouched.UHD.MP4.ESubs.Tamil-MTR.part3.rar
http://www.heroupload.us/33b297f8c6209ec8/Maniyar.Kudumbam.2018.4K.Untouched.UHD.MP4.ESubs.Tamil-MTR.part4.rar
http://www.heroupload.us/7879e0921e60d209/Maniyar.Kudumbam.2018.4K.Untouched.UHD.MP4.ESubs.Tamil-MTR.part5.rar
http://www.heroupload.us/52000c762b9ea9e4/Maniyar.Kudumbam.2018.4K.Untouched.UHD.MP4.ESubs.Tamil-MTR.srt



http://filefloater.com/1KzA/Maniyar.Kudumbam.2018.4K.Untouched.UHD.MP4.ESubs.Tamil-MTR.part1.rar
http://filefloater.com/1kyH/Maniyar.Kudumbam.2018.4K.Untouched.UHD.MP4.ESubs.Tamil-MTR.part2.rar
http://filefloater.com/1kyI/Maniyar.Kudumbam.2018.4K.Untouched.UHD.MP4.ESubs.Tamil-MTR.part3.rar
http://filefloater.com/1KzD/Maniyar.Kudumbam.2018.4K.Untouched.UHD.MP4.ESubs.Tamil-MTR.part4.rar
http://filefloater.com/1kyK/Maniyar.Kudumbam.2018.4K.Untouched.UHD.MP4.ESubs.Tamil-MTR.part5.rar
http://filefloater.com/1KzF/Maniyar.Kudumbam.2018.4K.Untouched.UHD.MP4.ESubs.Tamil-MTR.srt



Buy Premium From My Links & Support Me

Теги: Maniyar

Dear visitor, you are browsing our website as Guest.
We strongly recommend you to register and login to view hidden contents.

Comments:

Add Comments