Set as default Homepage|Bookmark
 
 
» » Lakshmi (2018) Tamil - 720p - Pre-DVDRip - x264 - MP3-MTR
Advertise

Lakshmi (2018) Tamil - 720p - Pre-DVDRip - x264 - MP3-MTR

Author: wroser on 25-08-2018, 21:45
Lakshmi (2018) Tamil - 720p - Pre-DVDRip - x264 - MP3-MTR





Format                      : Matroska
Format version              : Version 4 / Version 2
File size                   : 1.37 GiB
Duration                    : 2 h 5 min
Overall bit rate            : 1 566 kb/s
Encoded date                : UTC 2018-08-25 07:45:38
Writing application         : mkvmerge v7.5.0 ('Glass Culture') 32bit built on Jan  4 2015 16:37:25
Writing library             : libebml v1.3.1 + libmatroska v1.4.2

Video
ID                          : 1
Format                      : AVC
Format/Info                 : Advanced Video Codec
Format profile              : High@L5.1
Format settings, CABAC      : Yes
Format settings, RefFrames  : 4 frames
Codec ID                    : V_MPEG4/ISO/AVC
Duration                    : 2 h 5 min
Bit rate                    : 1 481 kb/s
Width                       : 1 280 pixels
Height                      : 544 pixels
Display aspect ratio        : 2.35:1
Frame rate mode             : Constant
Frame rate                  : 25.000 FPS
Color space                 : YUV
Chroma subsampling          : 4:2:0
Bit depth                   : 8 bits
Scan type                   : Progressive
Bits/(Pixel*Frame)          : 0.085
Stream size                 : 1.30 GiB (95%)
Writing library             : x264 core 148 r2744 b97ae06
Encoding settings           : cabac=1 / ref=3 / deblock=1:0:0 / analyse=0x3:0x113 / me=hex / subme=7 / psy=1 / psy_rd=1.00:0.00 / mixed_ref=1 / me_range=16 / chroma_me=1 / trellis=1 / 8x8dct=1 / cqm=0 / deadzone=21,11 / fast_pskip=1 / chroma_qp_offset=-2 / threads=17 / lookahead_threads=2 / sliced_threads=0 / nr=0 / decimate=1 / interlaced=0 / bluray_compat=0 / constrained_intra=0 / bframes=3 / b_pyramid=2 / b_adapt=1 / b_bias=0 / direct=1 / weightb=1 / open_gop=0 / weightp=2 / keyint=250 / keyint_min=25 / scenecut=40 / intra_refresh=0 / rc_lookahead=40 / rc=abr / mbtree=1 / bitrate=1481 / ratetol=1.0 / qcomp=0.60 / qpmin=0 / qpmax=69 / qpstep=4 / vbv_maxrate=300000 / vbv_bufsize=300000 / nal_hrd=none / filler=0 / ip_ratio=1.40 / aq=1:1.00
Language                    : English
Default                     : Yes
Forced                      : No

Audio
ID                          : 2
Format                      : MPEG Audio
Format version              : Version 2
Format profile              : Layer 3
Mode                        : Joint stereo
Mode extension              : Intensity Stereo + MS Stereo
Codec ID                    : A_MPEG/L3
Codec ID/Hint               : MP3
Duration                    : 2 h 5 min
Bit rate mode               : Constant
Bit rate                    : 80.0 kb/s
Channel(s)                  : 2 channels
Sampling rate               : 22.05 kHz
Frame rate                  : 38.281 FPS (576 SPF)
Compression mode            : Lossy
Stream size                 : 71.7 MiB (5%)
Default                     : Yes
Forced                      : No


Lakshmi (2018) Tamil - 720p - Pre-DVDRip - x264 - MP3-MTRLakshmi (2018) Tamil - 720p - Pre-DVDRip - x264 - MP3-MTRLakshmi (2018) Tamil - 720p - Pre-DVDRip - x264 - MP3-MTRLakshmi (2018) Tamil - 720p - Pre-DVDRip - x264 - MP3-MTRLakshmi (2018) Tamil - 720p - Pre-DVDRip - x264 - MP3-MTR

SINGLE DIRECT FAST LINKS

http://www.heroupload.us/dc7c06fc93d79bea/Lakshmi.2018.Tamil.720p.PreDVDRip.x264-MTR.mkv



http://filefloater.com/1krA/Lakshmi.2018.Tamil.720p.PreDVDRip.x264-MTR.mkv



Buy Premium From My Links & Support Me

Теги: Lakshmi

Dear visitor, you are browsing our website as Guest.
We strongly recommend you to register and login to view hidden contents.

Comments:

Add Comments