Set as default Homepage|Bookmark
 
 
» » Vekh Baraatan Challiyan (2017) Punjabi - 720p - HDRip - x264 - AC3 - M2Tv
Advertise

Vekh Baraatan Challiyan (2017) Punjabi - 720p - HDRip - x264 - AC3 - M2Tv

Author: wroser on 14-06-2018, 23:04
Vekh Baraatan Challiyan (2017) Punjabi - 720p - HDRip - x264 - AC3 - M2Tv






Ratings: 7.1/10

Genere: Comedy, Drama

General
Format : Matroska
Format version : Version 4 / Version 2
File size : 945 MiB
Duration : 2 h 5 min
Overall bit rate : 1 056 kb/s

Video
ID : 1
Format : AVC
Format/Info : Advanced Video Codec
Format profile : High@L3.1
Format settings, CABAC : Yes
Format settings, RefFrames : 4 frames
Codec ID : V_MPEG4/ISO/AVC
Duration : 2 h 5 min
Bit rate : 926 kb/s
Width : 1 280 pixels
Height : 536 pixels
Display aspect ratio : 2.40:1
Frame rate mode : Constant
Frame rate : 24.000 FPS
Stream size : 829 MiB (88%)
Title : Mafiaking
Language : Panjabi
Default : Yes

Audio
ID : 2
Format : AC-3
Format/Info : Audio Coding 3
Format settings, Endianness : Big
Codec ID : A_AC3
Duration : 2 h 5 min
Bit rate mode : Constant
Bit rate : 128 kb/s
Channel(s) : 2 channels
Channel positions : Front: L R
Sampling rate : 48.0 kHz
Stream size : 115 MiB (12%)
Title : Mafiaking
Language : Panjabi
Default : Yes 


Vekh Baraatan Challiyan (2017) Punjabi - 720p - HDRip - x264 - AC3 - M2TvVekh Baraatan Challiyan (2017) Punjabi - 720p - HDRip - x264 - AC3 - M2TvVekh Baraatan Challiyan (2017) Punjabi - 720p - HDRip - x264 - AC3 - M2TvVekh Baraatan Challiyan (2017) Punjabi - 720p - HDRip - x264 - AC3 - M2TvVekh Baraatan Challiyan (2017) Punjabi - 720p - HDRip - x264 - AC3 - M2TvVekh Baraatan Challiyan (2017) Punjabi - 720p - HDRip - x264 - AC3 - M2TvVekh Baraatan Challiyan (2017) Punjabi - 720p - HDRip - x264 - AC3 - M2TvVekh Baraatan Challiyan (2017) Punjabi - 720p - HDRip - x264 - AC3 - M2Tv



SINGLE DIRECT FAST LINKS

http://www.heroupload.us/43caa9664f146df1/Vekh.Baraatan.Challiyan.2017.720p.HD-Rip.x264.Mafiaking-M2Tv.mkv


http://filefloater.com/Tol/Vekh.Baraatan.Challiyan.2017.720p.HD-Rip.x264.Mafiaking-M2Tv.mkv



Теги: Vekh

Dear visitor, you are browsing our website as Guest.
We strongly recommend you to register and login to view hidden contents.

Comments:

Add Comments