Set as default Homepage|Bookmark
 
 
» » Golak Bugni Bank Te Batua (2018) Punjabi - 1080p - WEB-HD - AVC - AAC-Team IcTv Exclu
Advertise

Golak Bugni Bank Te Batua (2018) Punjabi - 1080p - WEB-HD - AVC - AAC-Team IcTv Exclu

Author: wroser on 31-05-2018, 22:41
Golak Bugni Bank Te Batua (2018) Punjabi - 1080p - WEB-HD - AVC - AAC-Team IcTv Exclu





Movie Info
Banner :
Year : 2018
Cast : Amrinder Gill, Simi Chahal, Harish Verma |
Video: AVC
Audio : AAC
Genre : Comedy, Drama
Subtitles : None
Resolution : 1280 X 720
Runtime : 2hr 08min xx

Video
ID                                      : 1
Format                                  : AVC
Format/Info                              : Advanced Video Codec
Format profile                          : High@L4
Format settings                          : CABAC / 2 Ref Frames
Format settings, CABAC                  : Yes
Format settings, RefFrames              : 2 frames
Codec ID                                : avc1
Codec ID/Info                            : Advanced Video Coding
Duration                                : 2 h 8 min
Duration_FirstFrame                      : -41 ms
Bit rate                                : 2 749 kb/s
Width                                    : 1 920 pixels
Height                                  : 1 080 pixels
Display aspect ratio                    : 16:9
Frame rate mode                          : Variable
Frame rate                              : 24.000 FPS
Minimum frame rate                      : 24.000 FPS
Maximum frame rate                      : 24.094 FPS
Color space                              : YUV
Chroma subsampling                      : 4:2:0
Bit depth                                : 8 bits
Scan type                                : Progressive
Bits/(Pixel*Frame)                      : 0.055
Stream size                              : 2.47 GiB (95%)
Color range                              : Limited
Color primaries                          : BT.709
Transfer characteristics                : BT.709
Matrix coefficients                      : BT.709

Audio
ID                                      : 2
Format                                  : AAC
Format/Info                              : Advanced Audio Codec
Format profile                          : LC
Codec ID                                : mp4a-40-2
Duration                                : 2 h 8 min
Bit rate mode                            : Constant
Bit rate                                : 128 kb/s
Channel(s)                              : 2 channels
Channel positions                        : Front: L R
Sampling rate                            : 44.1 kHz
Frame rate                              : 43.066 FPS (1024 SPF)
Compression mode                        : Lossy
Stream size                              : 118 MiB (4%)
Default                                  : Yes
Alternate group                          : 1


Golak Bugni Bank Te Batua (2018) Punjabi - 1080p - WEB-HD - AVC - AAC-Team IcTv ExcluGolak Bugni Bank Te Batua (2018) Punjabi - 1080p - WEB-HD - AVC - AAC-Team IcTv ExcluGolak Bugni Bank Te Batua (2018) Punjabi - 1080p - WEB-HD - AVC - AAC-Team IcTv ExcluGolak Bugni Bank Te Batua (2018) Punjabi - 1080p - WEB-HD - AVC - AAC-Team IcTv ExcluGolak Bugni Bank Te Batua (2018) Punjabi - 1080p - WEB-HD - AVC - AAC-Team IcTv ExcluGolak Bugni Bank Te Batua (2018) Punjabi - 1080p - WEB-HD - AVC - AAC-Team IcTv ExcluGolak Bugni Bank Te Batua (2018) Punjabi - 1080p - WEB-HD - AVC - AAC-Team IcTv ExcluGolak Bugni Bank Te Batua (2018) Punjabi - 1080p - WEB-HD - AVC - AAC-Team IcTv ExcluGolak Bugni Bank Te Batua (2018) Punjabi - 1080p - WEB-HD - AVC - AAC-Team IcTv ExcluGolak Bugni Bank Te Batua (2018) Punjabi - 1080p - WEB-HD - AVC - AAC-Team IcTv Exclu

SINGLE DIRECT FAST LINKS
http://www.heroupload.us/6b8fa79e43dbdc81/Golak.Bugni.Bank.Te.Batua.2018.1080P.UntoucheD.WEB-HD.AVC.AAC-Team.IcTv.Exclusive.mp4


http://filefloater.com/Ti5/Golak.Bugni.Bank.Te.Batua.2018.1080P.UntoucheD.WEB-HD.AVC.AAC-Team.IcTv.Exclusive.mp4

1GB LINKS


http://www.heroupload.us/33ef49f0b29dee29/Golak.Bugni.Bank.Te.Batua.2018.1080P.UntoucheD.WEB-HD.AVC.AAC-Team.IcTv.Exclusive.part1.rar
http://www.heroupload.us/f985917629051c89/Golak.Bugni.Bank.Te.Batua.2018.1080P.UntoucheD.WEB-HD.AVC.AAC-Team.IcTv.Exclusive.part2.rar
http://www.heroupload.us/163af1dec49ef676/Golak.Bugni.Bank.Te.Batua.2018.1080P.UntoucheD.WEB-HD.AVC.AAC-Team.IcTv.Exclusive.part3.rar
http://www.heroupload.us/95fd75ab40030a1f/Golak.Bugni.Bank.Te.Batua.2018.1080P.UntoucheD.WEB-HD.AVC.AAC-Team.IcTv.Exclusive.part4.rar



http://filefloater.com/Ti6/Golak.Bugni.Bank.Te.Batua.2018.1080P.UntoucheD.WEB-HD.AVC.AAC-Team.IcTv.Exclusive.part1.rar
http://filefloater.com/Ti7/Golak.Bugni.Bank.Te.Batua.2018.1080P.UntoucheD.WEB-HD.AVC.AAC-Team.IcTv.Exclusive.part2.rar
http://filefloater.com/Ti8/Golak.Bugni.Bank.Te.Batua.2018.1080P.UntoucheD.WEB-HD.AVC.AAC-Team.IcTv.Exclusive.part3.rar
http://filefloater.com/Ti9/Golak.Bugni.Bank.Te.Batua.2018.1080P.UntoucheD.WEB-HD.AVC.AAC-Team.IcTv.Exclusive.part4.rar





Теги: Golak

Dear visitor, you are browsing our website as Guest.
We strongly recommend you to register and login to view hidden contents.

Comments:

Add Comments
Reply
  • Group: Guests
  • ICQ:
  • Registration: --
  • Status:
  • 0 Comment
  • 0 Article
^
viagra 50 mg yorum
<a href="http://viagranbdnr.com/#">viagra without a doctor</a>
how long does viagra take to work 100mg
how to take viagra for maximum effect
opiniones viagra online
<a href="http://canadamdonlineget.com/#">canadian pharmacies online</a>
viagra 2x100 mg
best canadian pharmacies online
viagra generika online
Reply
  • Group: Guests
  • ICQ:
  • Registration: --
  • Status:
  • 0 Comment
  • 0 Article
^
Trust it or not, there is a sticker price connected to weight. casino
Reply
  • Group: Members
  • ICQ:
  • Registration: 22.03.2018
  • Status: Currently Offline
  • 319 Comment
  • 0 Article
^
DOWNLOAD :

http://thescenebox.com/444162c048d9368b/r352s3f45
http://thescenebox.com/444162c048d9368b/345ds623



Free download Place, Free File Downloads, Free torrent site, Free torrent downloads, Your Torrent engine, yourfilebb20180, yourfilebb280, yourfilebboo0
, Torrent download
Reply
  • Group: Guests
  • ICQ:
  • Registration: --
  • Status:
  • 0 Comment
  • 0 Article
^
viagra 10mg tablets announcements
viagra for sale generic pills online no prescription
<a href="http://xlviagracan.com">viagra for sale</a> - ed problems
viagra buy online