Set as default Homepage|Bookmark
 
 
» » Sathya Harishchandra (2017) Kannada - 720p - HDRip - x264 - AAC-TMV
Advertise

Sathya Harishchandra (2017) Kannada - 720p - HDRip - x264 - AAC-TMV

Author: wroser on 4-05-2018, 09:55
Sathya Harishchandra (2017) Kannada - 720p - HDRip - x264 - AAC-TMV







General
Format                      : Matroska
Format version              : Version 4 / Version 2
File size                   : 1.37 GiB
Duration                    : 2 h 43 min
Overall bit rate            : 1 203 kb/s
Encoded date                : UTC 2018-05-04 04:32:54
Writing application         : mkvmerge v7.1.0 ('Good Love') 32bit built on Jul 27 2014 12:59:18
Writing library             : libebml v1.3.0 + libmatroska v1.4.1

Video
ID                          : 1
Format                      : AVC
Format/Info                 : Advanced Video Codec
Format profile              : Main@L4
Format settings, CABAC      : Yes
Format settings, RefFrames  : 4 frames
Codec ID                    : V_MPEG4/ISO/AVC
Duration                    : 2 h 43 min
Bit rate                    : 1 133 kb/s
Width                       : 1 280 pixels
Height                      : 550 pixels
Display aspect ratio        : 2.35:1
Original display aspect rat : 2.35:1
Frame rate mode             : Variable
Frame rate                  : 17.472 FPS
Color space                 : YUV
Chroma subsampling          : 4:2:0
Bit depth                   : 8 bits
Scan type                   : Progressive
Bits/(Pixel*Frame)          : 0.092
Stream size                 : 1.30 GiB (95%)
Writing library             : x264 core 148 r2708 86b7198
Encoding settings           : cabac=1 / ref=1 / deblock=1:0:0 / analyse=0x1:0x111 / me=hex / subme=2 / psy=1 / psy_rd=1.00:0.00 / mixed_ref=0 / me_range=16 / chroma_me=1 / trellis=0 / 8x8dct=0 / cqm=0 / deadzone=21,11 / fast_pskip=1 / chroma_qp_offset=0 / threads=12 / lookahead_threads=4 / sliced_threads=0 / nr=0 / decimate=1 / interlaced=0 / bluray_compat=0 / constrained_intra=0 / bframes=3 / b_pyramid=2 / b_adapt=1 / b_bias=0 / direct=1 / weightb=1 / open_gop=0 / weightp=1 / keyint=190 / keyint_min=19 / scenecut=40 / intra_refresh=0 / rc_lookahead=10 / rc=abr / mbtree=1 / bitrate=1133 / ratetol=1.0 / qcomp=0.60 / qpmin=0 / qpmax=69 / qpstep=4 / vbv_maxrate=20000 / vbv_bufsize=25000 / nal_hrd=none / filler=0 / ip_ratio=1.40 / aq=1:1.00
Language                    : Kannada
Default                     : Yes
Forced                      : No
Color range                 : Limited
Color primaries             : BT.709
Transfer characteristics    : BT.709
Matrix coefficients         : BT.709

Audio
ID                          : 2
Format                      : AAC
Format/Info                 : Advanced Audio Codec
Format profile              : LC
Codec ID                    : A_AAC
Duration                    : 2 h 42 min
Bit rate                    : 64.4 kb/s
Channel(s)                  : 2 channels
Channel positions           : Front: L R
Sampling rate               : 44.1 kHz
Frame rate                  : 43.066 FPS (1024 SPF)
Compression mode            : Lossy
Delay relative to video     : 41 s 494 ms
Stream size                 : 74.9 MiB (5%)
Language                    : Kannada
Default                     : Yes
Forced                      : No



Sathya Harishchandra (2017) Kannada - 720p - HDRip - x264 - AAC-TMVSathya Harishchandra (2017) Kannada - 720p - HDRip - x264 - AAC-TMVSathya Harishchandra (2017) Kannada - 720p - HDRip - x264 - AAC-TMVSathya Harishchandra (2017) Kannada - 720p - HDRip - x264 - AAC-TMV



SINGLE DIRECT FAST LINKS

http://www.heroupload.us/9bc254589f65f035/Sathya.Harishchandra.2017.Kannada.HDRip.720p.x264.AAC-TMV.mkv



http://filefloater.com/SVf/Sathya.Harishchandra.2017.Kannada.HDRip.720p.x264.AAC-TMV.mkv




Теги: Sathya

Dear visitor, you are browsing our website as Guest.
We strongly recommend you to register and login to view hidden contents.

Comments:

Add Comments